  0
SECTION
  2
HEADER
  9
$ACADVER
  1
AC1018
  9
$ACADMAINTVER
 70
     0
  9
$DWGCODEPAGE
  3
ANSI_1252
  9
$INSBASE
 10
0.0
 20
0.0
 30
0.0
  9
$EXTMIN
 10
-68.11097888245445
 20
315.1900548713705
 30
0.0
  9
$EXTMAX
 10
228.8890211175436
 20
525.1900548713706
 30
0.0
  9
$LIMMIN
 10
0.0
 20
0.0
  9
$LIMMAX
 10
12.0
 20
9.0
  9
$ORTHOMODE
 70
     0
  9
$REGENMODE
 70
     1
  9
$FILLMODE
 70
     1
  9
$QTEXTMODE
 70
     0
  9
$MIRRTEXT
 70
     1
  9
$LTSCALE
 40
1.0
  9
$ATTMODE
 70
     1
  9
$TEXTSIZE
 40
0.2
  9
$TRACEWID
 40
0.05
  9
$TEXTSTYLE
  7
Standard
  9
$CLAYER
  8
0
  9
$CELTYPE
  6
ByLayer
  9
$CECOLOR
 62
   256
  9
$CELTSCALE
 40
1.0
  9
$DISPSILH
 70
     0
  9
$DIMSCALE
 40
1.0
  9
$DIMASZ
 40
0.18
  9
$DIMEXO
 40
0.0625
  9
$DIMDLI
 40
0.38
  9
$DIMRND
 40
0.0
  9
$DIMDLE
 40
0.0
  9
$DIMEXE
 40
0.18
  9
$DIMTP
 40
0.0
  9
$DIMTM
 40
0.0
  9
$DIMTXT
 40
0.18
  9
$DIMCEN
 40
0.09
  9
$DIMTSZ
 40
0.0
  9
$DIMTOL
 70
     0
  9
$DIMLIM
 70
     0
  9
$DIMTIH
 70
     1
  9
$DIMTOH
 70
     1
  9
$DIMSE1
 70
     0
  9
$DIMSE2
 70
     0
  9
$DIMTAD
 70
     0
  9
$DIMZIN
 70
     0
  9
$DIMBLK
  1

  9
$DIMASO
 70
     1
  9
$DIMSHO
 70
     1
  9
$DIMPOST
  1

  9
$DIMAPOST
  1

  9
$DIMALT
 70
     0
  9
$DIMALTD
 70
     2
  9
$DIMALTF
 40
25.4
  9
$DIMLFAC
 40
1.0
  9
$DIMTOFL
 70
     0
  9
$DIMTVP
 40
0.0
  9
$DIMTIX
 70
     0
  9
$DIMSOXD
 70
     0
  9
$DIMSAH
 70
     0
  9
$DIMBLK1
  1

  9
$DIMBLK2
  1

  9
$DIMSTYLE
  2
Standard
  9
$DIMCLRD
 70
     0
  9
$DIMCLRE
 70
     0
  9
$DIMCLRT
 70
     0
  9
$DIMTFAC
 40
1.0
  9
$DIMGAP
 40
0.09
  9
$DIMJUST
 70
     0
  9
$DIMSD1
 70
     0
  9
$DIMSD2
 70
     0
  9
$DIMTOLJ
 70
     1
  9
$DIMTZIN
 70
     0
  9
$DIMALTZ
 70
     0
  9
$DIMALTTZ
 70
     0
  9
$DIMUPT
 70
     0
  9
$DIMDEC
 70
     4
  9
$DIMTDEC
 70
     4
  9
$DIMALTU
 70
     2
  9
$DIMALTTD
 70
     2
  9
$DIMTXSTY
  7
Standard
  9
$DIMAUNIT
 70
     0
  9
$DIMADEC
 70
     0
  9
$DIMALTRND
 40
0.0
  9
$DIMAZIN
 70
     0
  9
$DIMDSEP
 70
    46
  9
$DIMATFIT
 70
     3
  9
$DIMFRAC
 70
     0
  9
$DIMLDRBLK
  1

  9
$DIMLUNIT
 70
     2
  9
$DIMLWD
 70
    -2
  9
$DIMLWE
 70
    -2
  9
$DIMTMOVE
 70
     0
  9
$LUNITS
 70
     2
  9
$LUPREC
 70
     4
  9
$SKETCHINC
 40
0.1
  9
$FILLETRAD
 40
0.5
  9
$AUNITS
 70
     0
  9
$AUPREC
 70
     0
  9
$MENU
  1
.
  9
$ELEVATION
 40
0.0
  9
$PELEVATION
 40
0.0
  9
$THICKNESS
 40
0.0
  9
$LIMCHECK
 70
     0
  9
$CHAMFERA
 40
0.5
  9
$CHAMFERB
 40
0.5
  9
$CHAMFERC
 40
1.0
  9
$CHAMFERD
 40
0.0
  9
$SKPOLY
 70
     0
  9
$TDCREATE
 40
2458158.864583507
  9
$TDUCREATE
 40
2458158.82291684
  9
$TDUPDATE
 40
2458158.864584051
  9
$TDUUPDATE
 40
2458158.822917384
  9
$TDINDWG
 40
0.0000000116
  9
$TDUSRTIMER
 40
0.0000000116
  9
$USRTIMER
 70
     1
  9
$ANGBASE
 50
0.0
  9
$ANGDIR
 70
     0
  9
$PDMODE
 70
     0
  9
$PDSIZE
 40
0.0
  9
$PLINEWID
 40
0.0
  9
$SPLFRAME
 70
     0
  9
$SPLINETYPE
 70
     6
  9
$SPLINESEGS
 70
     8
  9
$HANDSEED
  5
2A3
  9
$SURFTAB1
 70
     6
  9
$SURFTAB2
 70
     6
  9
$SURFTYPE
 70
     6
  9
$SURFU
 70
     6
  9
$SURFV
 70
     6
  9
$UCSBASE
  2

  9
$UCSNAME
  2

  9
$UCSORG
 10
0.0
 20
0.0
 30
0.0
  9
$UCSXDIR
 10
1.0
 20
0.0
 30
0.0
  9
$UCSYDIR
 10
0.0
 20
1.0
 30
0.0
  9
$UCSORTHOREF
  2

  9
$UCSORTHOVIEW
 70
     0
  9
$UCSORGTOP
 10
0.0
 20
0.0
 30
0.0
  9
$UCSORGBOTTOM
 10
0.0
 20
0.0
 30
0.0
  9
$UCSORGLEFT
 10
0.0
 20
0.0
 30
0.0
  9
$UCSORGRIGHT
 10
0.0
 20
0.0
 30
0.0
  9
$UCSORGFRONT
 10
0.0
 20
0.0
 30
0.0
  9
$UCSORGBACK
 10
0.0
 20
0.0
 30
0.0
  9
$PUCSBASE
  2

  9
$PUCSNAME
  2

  9
$PUCSORG
 10
0.0
 20
0.0
 30
0.0
  9
$PUCSXDIR
 10
1.0
 20
0.0
 30
0.0
  9
$PUCSYDIR
 10
0.0
 20
1.0
 30
0.0
  9
$PUCSORTHOREF
  2

  9
$PUCSORTHOVIEW
 70
     0
  9
$PUCSORGTOP
 10
0.0
 20
0.0
 30
0.0
  9
$PUCSORGBOTTOM
 10
0.0
 20
0.0
 30
0.0
  9
$PUCSORGLEFT
 10
0.0
 20
0.0
 30
0.0
  9
$PUCSORGRIGHT
 10
0.0
 20
0.0
 30
0.0
  9
$PUCSORGFRONT
 10
0.0
 20
0.0
 30
0.0
  9
$PUCSORGBACK
 10
0.0
 20
0.0
 30
0.0
  9
$USERI1
 70
     0
  9
$USERI2
 70
     0
  9
$USERI3
 70
     0
  9
$USERI4
 70
     0
  9
$USERI5
 70
     0
  9
$USERR1
 40
18.1
  9
$USERR2
 40
0.0
  9
$USERR3
 40
0.0
  9
$USERR4
 40
0.0
  9
$USERR5
 40
0.0
  9
$WORLDVIEW
 70
     1
  9
$SHADEDGE
 70
     3
  9
$SHADEDIF
 70
    70
  9
$TILEMODE
 70
     1
  9
$MAXACTVP
 70
    64
  9
$PINSBASE
 10
0.0
 20
0.0
 30
0.0
  9
$PLIMCHECK
 70
     0
  9
$PEXTMIN
 10
1.00000000000000E+20
 20
1.00000000000000E+20
 30
1.00000000000000E+20
  9
$PEXTMAX
 10
-1.00000000000000E+20
 20
-1.00000000000000E+20
 30
-1.00000000000000E+20
  9
$PLIMMIN
 10
0.0
 20
0.0
  9
$PLIMMAX
 10
12.0
 20
9.0
  9
$UNITMODE
 70
     0
  9
$VISRETAIN
 70
     1
  9
$PLINEGEN
 70
     0
  9
$PSLTSCALE
 70
     1
  9
$TREEDEPTH
 70
  3020
  9
$CMLSTYLE
  2
Standard
  9
$CMLJUST
 70
     0
  9
$CMLSCALE
 40
1.0
  9
$PROXYGRAPHICS
 70
     1
  9
$MEASUREMENT
 70
     1
  9
$CELWEIGHT
370
    -1
  9
$ENDCAPS
280
     0
  9
$JOINSTYLE
280
     0
  9
$LWDISPLAY
290
     0
  9
$INSUNITS
 70
     4
  9
$HYPERLINKBASE
  1

  9
$STYLESHEET
  1

  9
$XEDIT
290
     1
  9
$CEPSNTYPE
380
     0
  9
$PSTYLEMODE
290
     1
  9
$FINGERPRINTGUID
  2
{64C066F9-138D-45E9-9674-206963637869}
  9
$VERSIONGUID
  2
{FAEB1C32-E019-11D5-929B-00C0DF256EC4}
  9
$EXTNAMES
290
     1
  9
$PSVPSCALE
 40
0.0
  9
$OLESTARTUP
290
     0
  9
$SORTENTS
280
   127
  9
$INDEXCTL
280
     0
  9
$HIDETEXT
280
     1
  9
$XCLIPFRAME
290
     0
  9
$HALOGAP
280
     0
  9
$OBSCOLOR
 70
   257
  9
$OBSLTYPE
280
     0
  9
$INTERSECTIONDISPLAY
280
     0
  9
$INTERSECTIONCOLOR
 70
   257
  9
$DIMASSOC
280
     2
  9
$PROJECTNAME
  1

  0
ENDSEC
  0
SECTION
  2
CLASSES
  0
CLASS
  1
ACDBDICTIONARYWDFLT
  2
AcDbDictionaryWithDefault
  3
ObjectDBX Classes
 90
        0
 91
        4
280
     0
281
     0
  0
CLASS
  1
VISUALSTYLE
  2
AcDbVisualStyle
  3
ObjectDBX Classes
 90
     4095
 91
        4
280
     0
281
     0
  0
CLASS
  1
MATERIAL
  2
AcDbMaterial
  3
ObjectDBX Classes
 90
     1153
 91
        4
280
     0
281
     0
  0
ENDSEC
  0
SECTION
  2
TABLES
  0
TABLE
  2
VPORT
  5
8
330
0
100
AcDbSymbolTable
 70
     1
  0
VPORT
  5
29
330
8
100
AcDbSymbolTableRecord
100
AcDbViewportTableRecord
  2
*Active
 70
     0
 10
0.0
 20
0.0
 11
1.0
 21
1.0
 12
80.38902111754457
 22
420.1900548713705
 13
0.0
 23
0.0
 14
0.5
 24
0.5
 15
0.5
 25
0.5
 16
0.0
 26
0.0
 36
1.0
 17
0.0
 27
0.0
 37
0.0
 40
231.0000000000002
 41
1.60267857142857
 42
50.0
 43
0.0
 44
0.0
 50
0.0
 51
0.0
 71
     0
 72
   100
 73
     1
 74
     3
 75
     0
 76
     0
 77
     0
 78
     0
281
     0
 65
     1
110
0.0
120
0.0
130
0.0
111
1.0
121
0.0
131
0.0
112
0.0
122
1.0
132
0.0
 79
     0
146
0.0
  0
ENDTAB
  0
TABLE
  2
LTYPE
  5
5
330
0
100
AcDbSymbolTable
 70
     8
  0
LTYPE
  5
14
330
5
100
AcDbSymbolTableRecord
100
AcDbLinetypeTableRecord
  2
ByBlock
 70
     0
  3

 72
    65
 73
     0
 40
0.0
  0
LTYPE
  5
15
330
5
100
AcDbSymbolTableRecord
100
AcDbLinetypeTableRecord
  2
ByLayer
 70
     0
  3

 72
    65
 73
     0
 40
0.0
  0
LTYPE
  5
16
330
5
100
AcDbSymbolTableRecord
100
AcDbLinetypeTableRecord
  2
Continuous
 70
     0
  3
Solid line
 72
    65
 73
     0
 40
0.0
  0
LTYPE
  5
3F
330
5
100
AcDbSymbolTableRecord
100
AcDbLinetypeTableRecord
  2
DASHED
 70
     0
  3
Dashed
 72
    65
 73
     2
 40
15.0
 49
7.0
 74
     0
 49
-8.0
 74
     0
  0
LTYPE
  5
40
330
5
100
AcDbSymbolTableRecord
100
AcDbLinetypeTableRecord
  2
DOTTED
 70
     0
  3
Dotted
 72
    65
 73
     2
 40
1.0
 49
0.0
 74
     0
 49
-1.0
 74
     0
  0
LTYPE
  5
41
330
5
100
AcDbSymbolTableRecord
100
AcDbLinetypeTableRecord
  2
DOT_CENTER
 70
     0
  3
Dot_Center
 72
    65
 73
     4
 40
14.0
 49
12.0
 74
     0
 49
-1.0
 74
     0
 49
0.0
 74
     0
 49
-1.0
 74
     0
  0
LTYPE
  5
42
330
5
100
AcDbSymbolTableRecord
100
AcDbLinetypeTableRecord
  2
LONG_DASHED
 70
     0
  3
Long_Dashed
 72
    65
 73
     2
 40
15.0
 49
10.0
 74
     0
 49
-5.0
 74
     0
  0
LTYPE
  5
43
330
5
100
AcDbSymbolTableRecord
100
AcDbLinetypeTableRecord
  2
DASH_CENTER
 70
     0
  3
Dash_Center
 72
    65
 73
     4
 40
14.0
 49
11.0
 74
     0
 49
-1.0
 74
     0
 49
1.0
 74
     0
 49
-1.0
 74
     0
  0
LTYPE
  5
44
330
5
100
AcDbSymbolTableRecord
100
AcDbLinetypeTableRecord
  2
PHANTOM
 70
     0
  3
Phantom
 72
    65
 73
     6
 40
13.0
 49
10.0
 74
     0
 49
-1.0
 74
     0
 49
0.0
 74
     0
 49
-1.0
 74
     0
 49
0.0
 74
     0
 49
-1.0
 74
     0
  0
LTYPE
  5
45
330
5
100
AcDbSymbolTableRecord
100
AcDbLinetypeTableRecord
  2
CENTER_DASH_DASH
 70
     0
  3
Center_Dash_Dash
 72
    65
 73
     6
 40
14.0
 49
9.0
 74
     0
 49
-1.0
 74
     0
 49
1.0
 74
     0
 49
-1.0
 74
     0
 49
1.0
 74
     0
 49
-1.0
 74
     0
  0
ENDTAB
  0
TABLE
  2
LAYER
  5
2
330
0
100
AcDbSymbolTable
 70
     2
  0
LAYER
  5
10
330
2
100
AcDbSymbolTableRecord
100
AcDbLayerTableRecord
  2
0
 70
     0
 62
     7
  6
Continuous
370
    -3
390
F
  0
LAYER
  5
46
330
2
100
AcDbSymbolTableRecord
100
AcDbLayerTableRecord
  2
1
 70
     0
 62
     7
  6
Continuous
370
    -3
390
F
  0
ENDTAB
  0
TABLE
  2
STYLE
  5
3
330
0
100
AcDbSymbolTable
 70
     5
  0
STYLE
  5
11
330
3
100
AcDbSymbolTableRecord
100
AcDbTextStyleTableRecord
  2
Standard
 70
     0
 40
0.0
 41
1.0
 50
0.0
 71
     0
 42
0.2
  3
txt
  4

  0
STYLE
  5
D1
330
3
100
AcDbSymbolTableRecord
100
AcDbTextStyleTableRecord
  2
CONVERTER_11
 70
     0
 40
0.0
 41
0.9
 50
0.0
 71
     0
 42
0.2
  3
txt.shx
  4

  0
STYLE
  5
239
330
3
100
AcDbSymbolTableRecord
100
AcDbTextStyleTableRecord
  2
CONVERTER_12
 70
     0
 40
0.0
 41
0.81
 50
0.0
 71
     0
 42
0.2
  3
txt.shx
  4

  0
STYLE
  5
23F
330
3
100
AcDbSymbolTableRecord
100
AcDbTextStyleTableRecord
  2
CONVERTER_13
 70
     0
 40
0.0
 41
0.855
 50
0.0
 71
     0
 42
0.2
  3
txt.shx
  4

  0
STYLE
  5
242
330
3
100
AcDbSymbolTableRecord
100
AcDbTextStyleTableRecord
  2
CONVERTER_14
 70
     0
 40
0.0
 41
0.72
 50
0.0
 71
     0
 42
0.2
  3
txt.shx
  4

  0
ENDTAB
  0
TABLE
  2
VIEW
  5
6
330
0
100
AcDbSymbolTable
 70
     0
  0
ENDTAB
  0
TABLE
  2
UCS
  5
7
330
0
100
AcDbSymbolTable
 70
     0
  0
ENDTAB
  0
TABLE
  2
APPID
  5
9
330
0
100
AcDbSymbolTable
 70
     1
  0
APPID
  5
12
330
9
100
AcDbSymbolTableRecord
100
AcDbRegAppTableRecord
  2
ACAD
 70
     0
  0
ENDTAB
  0
TABLE
  2
DIMSTYLE
  5
A
330
0
100
AcDbSymbolTable
 70
     4
100
AcDbDimStyleTable
  0
DIMSTYLE
105
27
330
A
100
AcDbSymbolTableRecord
100
AcDbDimStyleTableRecord
  2
Standard
 70
     0
178
     0
340
11
  0
DIMSTYLE
105
D5
102
{ACAD_REACTORS
330
D6
102
}
330
A
100
AcDbSymbolTableRecord
100
AcDbDimStyleTableRecord
  2
ME10_DIM_10
 70
     0
 41
3.5
 42
0.0
 44
1.5
 73
     0
 74
     0
 77
     1
 78
     8
140
3.5
147
1.5
172
     1
173
     1
174
     1
175
     1
176
     2
177
     2
271
     2
178
     3
271
     2
340
D1
  0
DIMSTYLE
105
135
102
{ACAD_REACTORS
330
136
102
}
330
A
100
AcDbSymbolTableRecord
100
AcDbDimStyleTableRecord
  2
ME10_DIM_11
 70
     0
 41
3.5
 42
0.0
 44
2.0
 73
     0
 74
     0
 77
     1
 78
     8
140
3.5
147
2.0
172
     1
173
     1
174
     1
175
     1
176
     2
177
     2
271
     2
178
     3
271
     2
340
D1
  0
DIMSTYLE
105
140
102
{ACAD_REACTORS
330
141
102
}
330
A
100
AcDbSymbolTableRecord
100
AcDbDimStyleTableRecord
  2
ME10_DIM_12
 70
     0
 41
3.5
 42
0.0
 44
2.0
 73
     0
 74
     0
 77
     1
 78
     8
140
3.5
147
2.0
172
     1
173
     1
174
     1
175
     1
176
     2
177
     2
271
     2
178
     3
271
     2
340
D1
  0
ENDTAB
  0
TABLE
  2
BLOCK_RECORD
  5
1
330
0
100
AcDbSymbolTable
 70
    20
  0
BLOCK_RECORD
  5
1F
330
1
100
AcDbSymbolTableRecord
100
AcDbBlockTableRecord
  2
*Model_Space
340
22
  0
BLOCK_RECORD
  5
1B
330
1
100
AcDbSymbolTableRecord
100
AcDbBlockTableRecord
  2
*Paper_Space
340
1E
  0
BLOCK_RECORD
  5
23
330
1
100
AcDbSymbolTableRecord
100
AcDbBlockTableRecord
  2
*Paper_Space0
340
26
  0
BLOCK_RECORD
  5
47
330
1
100
AcDbSymbolTableRecord
100
AcDbBlockTableRecord
  2
D-UK_4_10_BU-select__1
340
0
102
{BLKREFS
331
4B
102
}
  0
BLOCK_RECORD
  5
4A
330
1
100
AcDbSymbolTableRecord
100
AcDbBlockTableRecord
  2
AllgSicht1
340
0
102
{BLKREFS
331
7D
102
}
  0
BLOCK_RECORD
  5
4E
330
1
100
AcDbSymbolTableRecord
100
AcDbBlockTableRecord
  2
D-UK_4_10_BU-select__2
340
0
102
{BLKREFS
331
52
102
}
  0
BLOCK_RECORD
  5
51
330
1
100
AcDbSymbolTableRecord
100
AcDbBlockTableRecord
  2
Drfsicht1
340
0
102
{BLKREFS
331
7E
102
}
  0
BLOCK_RECORD
  5
55
330
1
100
AcDbSymbolTableRecord
100
AcDbBlockTableRecord
  2
D-UK_4_10_BU-select__3
340
0
102
{BLKREFS
331
59
102
}
  0
BLOCK_RECORD
  5
58
330
1
100
AcDbSymbolTableRecord
100
AcDbBlockTableRecord
  2
Rckans1
340
0
102
{BLKREFS
331
7F
102
}
  0
BLOCK_RECORD
  5
5C
330
1
100
AcDbSymbolTableRecord
100
AcDbBlockTableRecord
  2
D-UK_4_10_BU-select__4
340
0
102
{BLKREFS
331
60
102
}
  0
BLOCK_RECORD
  5
5F
330
1
100
AcDbSymbolTableRecord
100
AcDbBlockTableRecord
  2
SA_Links1
340
0
102
{BLKREFS
331
80
102
}
  0
BLOCK_RECORD
  5
63
330
1
100
AcDbSymbolTableRecord
100
AcDbBlockTableRecord
  2
D-UK_4_10_BU-select__5
340
0
102
{BLKREFS
331
67
102
}
  0
BLOCK_RECORD
  5
66
330
1
100
AcDbSymbolTableRecord
100
AcDbBlockTableRecord
  2
SA_Rechts1
340
0
102
{BLKREFS
331
81
102
}
  0
BLOCK_RECORD
  5
6A
330
1
100
AcDbSymbolTableRecord
100
AcDbBlockTableRecord
  2
D-UK_4_10_BU-select__6
340
0
102
{BLKREFS
331
6E
102
}
  0
BLOCK_RECORD
  5
6D
330
1
100
AcDbSymbolTableRecord
100
AcDbBlockTableRecord
  2
Vordans1
340
0
102
{BLKREFS
331
82
102
}
  0
BLOCK_RECORD
  5
71
330
1
100
AcDbSymbolTableRecord
100
AcDbBlockTableRecord
  2
_rahmen
340
0
102
{BLKREFS
331
78
102
}
  0
BLOCK_RECORD
  5
74
330
1
100
AcDbSymbolTableRecord
100
AcDbBlockTableRecord
  2
_punkt
340
0
102
{BLKREFS
331
79
102
}
  0
BLOCK_RECORD
  5
77
330
1
100
AcDbSymbolTableRecord
100
AcDbBlockTableRecord
  2
A4I_CS
340
0
102
{BLKREFS
331
83
102
}
  0
BLOCK_RECORD
  5
7C
330
1
100
AcDbSymbolTableRecord
100
AcDbBlockTableRecord
  2
1
340
0
102
{BLKREFS
331
86
102
}
  0
BLOCK_RECORD
  5
C9
330
1
100
AcDbSymbolTableRecord
100
AcDbBlockTableRecord
  2
*D17
340
0
  0
BLOCK_RECORD
  5
12C
330
1
100
AcDbSymbolTableRecord
100
AcDbBlockTableRecord
  2
*D18
340
0
  0
BLOCK_RECORD
  5
137
330
1
100
AcDbSymbolTableRecord
100
AcDbBlockTableRecord
  2
*D19
340
0
  0
ENDTAB
  0
ENDSEC
  0
SECTION
  2
BLOCKS
  0
BLOCK
  5
20
330
1F
100
AcDbEntity
  8
0
100
AcDbBlockBegin
  2
*Model_Space
 70
     0
 10
0.0
 20
0.0
 30
0.0
  3
*Model_Space
  1

  0
ENDBLK
  5
21
330
1F
100
AcDbEntity
  8
0
100
AcDbBlockEnd
  0
BLOCK
  5
1C
330
1B
100
AcDbEntity
 67
     1
  8
0
100
AcDbBlockBegin
  2
*Paper_Space
 70
     0
 10
0.0
 20
0.0
 30
0.0
  3
*Paper_Space
  1

  0
ENDBLK
  5
1D
330
1B
100
AcDbEntity
 67
     1
  8
0
100
AcDbBlockEnd
  0
BLOCK
  5
24
330
23
100
AcDbEntity
  8
0
100
AcDbBlockBegin
  2
*Paper_Space0
 70
     0
 10
0.0
 20
0.0
 30
0.0
  3
*Paper_Space0
  1

  0
ENDBLK
  5
25
330
23
100
AcDbEntity
  8
0
100
AcDbBlockEnd
  0
BLOCK
  5
48
330
47
100
AcDbEntity
  8
0
100
AcDbBlockBegin
  2
D-UK_4_10_BU-select__1
 70
     0
 10
174.8219625265768
 20
352.3001925058023
 30
0.0
  3
D-UK_4_10_BU-select__1
  1

  0
LINE
  5
87
330
47
100
AcDbEntity
  8
0
  6
Continuous
 62
     7
100
AcDbLine
 10
177.6365450888763
 20
366.4901271458599
 30
0.0
 11
176.9437247658487
 21
366.2901271458599
 31
0.0
  0
LINE
  5
88
330
47
100
AcDbEntity
  8
0
  6
Continuous
 62
     7
100
AcDbLine
 10
177.6365450888763
 20
366.89012714586
 30
0.0
 11
176.9437247658487
 21
366.2901271458599
 31
0.0
  0
LINE
  5
89
330
47
100
AcDbEntity
  8
0
  6
Continuous
 62
     7
100
AcDbLine
 10
209.5062799481436
 20
356.8901271458599
 30
0.0
 11
208.8134596251161
 21
357.4901271458598
 31
0.0
  0
LINE
  5
8A
330
47
100
AcDbEntity
  8
0
  6
Continuous
 62
     7
100
AcDbLine
 10
210.4062799481436
 20
357.6695500092659
 30
0.0
 11
209.5062799481436
 21
356.8901271458599
 31
0.0
  0
LINE
  5
8B
330
47
100
AcDbEntity
  8
0
  6
Continuous
 62
     7
100
AcDbLine
 10
209.7134596251161
 20
358.2695500092659
 30
0.0
 11
208.8134596251161
 21
357.4901271458598
 31
0.0
  0
LINE
  5
8C
330
47
100
AcDbEntity
  8
0
  6
Continuous
 62
     7
100
AcDbLine
 10
209.5062799481436
 20
352.3001925058023
 30
0.0
 11
209.5062799481436
 21
356.8901271458599
 31
0.0
  0
LINE
  5
8D
330
47
100
AcDbEntity
  8
0
  6
Continuous
 62
     7
100
AcDbLine
 10
209.5062799481436
 20
352.3001925058023
 30
0.0
 11
210.4062799481436
 21
353.0796153692083
 31
0.0
  0
LINE
  5
8E
330
47
100
AcDbEntity
  8
0
  6
Continuous
 62
     7
100
AcDbLine
 10
210.4062799481436
 20
353.0796153692083
 30
0.0
 11
210.4062799481436
 21
357.6695500092659
 31
0.0
  0
LINE
  5
8F
330
47
100
AcDbEntity
  8
0
  6
Continuous
 62
     7
100
AcDbLine
 10
209.7134596251161
 20
358.2695500092659
 30
0.0
 11
210.4062799481436
 21
357.6695500092659
 31
0.0
  0
LINE
  5
90
330
47
100
AcDbEntity
  8
0
  6
Continuous
 62
     7
100
AcDbLine
 10
212.5280421874155
 20
374.9365326811702
 30
0.0
 11
212.5280421874155
 21
376.4993203242265
 31
0.0
  0
LINE
  5
91
330
47
100
AcDbEntity
  8
0
  6
Continuous
 62
     7
100
AcDbLine
 10
211.6280421874155
 20
374.1571098177642
 30
0.0
 11
212.5280421874155
 21
374.9365326811702
 31
0.0
  0
LINE
  5
92
330
47
100
AcDbEntity
  8
0
  6
Continuous
 62
     7
100
AcDbLine
 10
208.8134596251161
 20
357.4901271458598
 30
0.0
 11
208.8134596251161
 21
371.5527513890601
 31
0.0
  0
LINE
  5
93
330
47
100
AcDbEntity
  8
0
  6
Continuous
 62
     7
100
AcDbLine
 10
209.7134596251161
 20
358.2695500092659
 30
0.0
 11
209.7134596251161
 21
372.332174252466
 31
0.0
  0
LINE
  5
94
330
47
100
AcDbEntity
  8
0
  6
Continuous
 62
     7
100
AcDbLine
 10
208.8134596251161
 20
371.5527513890601
 30
0.0
 11
209.7134596251161
 21
372.332174252466
 31
0.0
  0
LINE
  5
95
330
47
100
AcDbEntity
  8
0
  6
Continuous
 62
     7
100
AcDbLine
 10
212.5280421874155
 20
376.4993203242265
 30
0.0
 11
211.6280421874154
 21
375.7198974608205
 31
0.0
  0
LINE
  5
96
330
47
100
AcDbEntity
  8
0
  6
Continuous
 62
     7
100
AcDbLine
 10
174.8219625265768
 20
386.3448974608206
 30
0.0
 11
175.7219625265768
 21
387.1243203242265
 31
0.0
  0
LINE
  5
97
330
47
100
AcDbEntity
  8
0
  6
Continuous
 62
     7
100
AcDbLine
 10
174.8219625265768
 20
384.7821098177641
 30
0.0
 11
175.8178917409289
 21
384.22775138906
 31
0.0
  0
LINE
  5
98
330
47
100
AcDbEntity
  8
0
  6
Continuous
 62
     7
100
AcDbLine
 10
204.5699351465722
 20
384.8155045016638
 30
0.0
 11
203.9685255851415
 21
384.9891164877564
 31
0.0
  0
LINE
  5
99
330
47
100
AcDbEntity
  8
0
  6
Continuous
 62
     7
100
AcDbLine
 10
203.9685255851415
 20
384.9891164877564
 30
0.0
 11
203.6173072024094
 21
383.0986460729595
 31
0.0
  0
LINE
  5
9A
330
47
100
AcDbEntity
  8
0
  6
Continuous
 62
     7
100
AcDbLine
 10
203.6173072024094
 20
383.0986460729595
 30
0.0
 11
182.8326975115829
 21
389.0986460729595
 31
0.0
  0
LINE
  5
9B
330
47
100
AcDbEntity
  8
0
  6
Continuous
 62
     7
100
AcDbLine
 10
203.8005515760088
 20
384.0849784632883
 30
0.0
 11
183.7326975115829
 21
389.8780689363655
 31
0.0
  0
LINE
  5
9C
330
47
100
AcDbEntity
  8
0
  6
Continuous
 62
     7
100
AcDbLine
 10
211.6280421874155
 20
374.1571098177642
 30
0.0
 11
211.6280421874154
 21
375.7198974608205
 31
0.0
  0
LINE
  5
9D
330
47
100
AcDbEntity
  8
0
  6
Continuous
 62
     7
100
AcDbLine
 10
208.8134596251161
 20
371.5527513890601
 30
0.0
 11
210.6321129730635
 21
374.17775138906
 31
0.0
  0
LINE
  5
9E
330
47
100
AcDbEntity
  8
0
  6
Continuous
 62
     7
100
AcDbLine
 10
210.6321129730635
 20
374.17775138906
 30
0.0
 11
211.6280421874155
 21
374.1571098177642
 31
0.0
  0
LINE
  5
9F
330
47
100
AcDbEntity
  8
0
  6
Continuous
 62
     7
100
AcDbLine
 10
209.7134596251161
 20
372.332174252466
 30
0.0
 11
210.9870167836311
 21
374.1703956732085
 31
0.0
  0
LINE
  5
A0
330
47
100
AcDbEntity
  8
0
  6
Continuous
 62
     7
100
AcDbLine
 10
211.6280421874154
 20
375.7198974608205
 30
0.0
 11
204.5699351465722
 21
384.8155045016638
 31
0.0
  0
LINE
  5
A1
330
47
100
AcDbEntity
  8
0
  6
Continuous
 62
     7
100
AcDbLine
 10
204.5699351465722
 20
384.8155045016638
 30
0.0
 11
205.4699351465722
 21
385.5949273650698
 31
0.0
  0
LINE
  5
A2
330
47
100
AcDbEntity
  8
0
  6
Continuous
 62
     7
100
AcDbLine
 10
205.4699351465722
 20
385.5949273650698
 30
0.0
 11
204.8685255851415
 21
385.7685393511623
 31
0.0
  0
LINE
  5
A3
330
47
100
AcDbEntity
  8
0
  6
Continuous
 62
     7
100
AcDbLine
 10
203.9685255851415
 20
384.9891164877564
 30
0.0
 11
204.8685255851415
 21
385.7685393511623
 31
0.0
  0
LINE
  5
A4
330
47
100
AcDbEntity
  8
0
  6
Continuous
 62
     7
100
AcDbLine
 10
205.4699351465722
 20
385.5949273650698
 30
0.0
 11
212.5280421874155
 21
376.4993203242265
 31
0.0
  0
LINE
  5
A5
330
47
100
AcDbEntity
  8
0
  6
Continuous
 62
     7
100
AcDbLine
 10
177.6365450888762
 20
380.5527513890601
 30
0.0
 11
177.6365450888763
 21
366.4901271458599
 31
0.0
  0
LINE
  5
A6
330
47
100
AcDbEntity
  8
0
  6
Continuous
 62
     7
100
AcDbLine
 10
175.8178917409289
 20
384.22775138906
 30
0.0
 11
177.6365450888762
 21
380.5527513890601
 31
0.0
  0
LINE
  5
A7
330
47
100
AcDbEntity
  8
0
  6
Continuous
 62
     7
100
AcDbLine
 10
182.8326975115829
 20
389.0986460729595
 30
0.0
 11
183.7326975115829
 21
389.8780689363655
 31
0.0
  0
LINE
  5
A8
330
47
100
AcDbEntity
  8
0
  6
Continuous
 62
     7
100
AcDbLine
 10
182.78006956742
 20
392.1449273650697
 30
0.0
 11
181.8800695674202
 21
391.3655045016637
 31
0.0
  0
LINE
  5
A9
330
47
100
AcDbEntity
  8
0
  6
Continuous
 62
     7
100
AcDbLine
 10
182.4814791288508
 20
391.1918925155711
 30
0.0
 11
181.8800695674202
 21
391.3655045016637
 31
0.0
  0
LINE
  5
AA
330
47
100
AcDbEntity
  8
0
  6
Continuous
 62
     7
100
AcDbLine
 10
174.8219625265768
 20
386.3448974608206
 30
0.0
 11
174.8219625265768
 21
384.7821098177641
 31
0.0
  0
LINE
  5
AB
330
47
100
AcDbEntity
  8
0
  6
Continuous
 62
     7
100
AcDbLine
 10
181.8800695674202
 20
391.3655045016637
 30
0.0
 11
174.8219625265768
 21
386.3448974608206
 31
0.0
  0
LINE
  5
AC
330
47
100
AcDbEntity
  8
0
  6
Continuous
 62
     7
100
AcDbLine
 10
182.8326975115829
 20
389.0986460729595
 30
0.0
 11
182.4814791288508
 21
391.1918925155711
 31
0.0
  0
LINE
  5
AD
330
47
100
AcDbEntity
  8
0
  6
Continuous
 62
     7
100
AcDbLine
 10
175.7219625265768
 20
387.1243203242265
 30
0.0
 11
182.78006956742
 21
392.1449273650697
 31
0.0
  0
LINE
  5
AE
330
47
100
AcDbEntity
  8
0
  6
Continuous
 62
     7
100
AcDbLine
 10
182.4814791288508
 20
391.1918925155711
 30
0.0
 11
183.3814791288508
 21
391.9713153789771
 31
0.0
  0
LINE
  5
AF
330
47
100
AcDbEntity
  8
0
  6
Continuous
 62
     7
100
AcDbLine
 10
183.3814791288508
 20
391.9713153789771
 30
0.0
 11
182.78006956742
 21
392.1449273650697
 31
0.0
  0
LINE
  5
B0
330
47
100
AcDbEntity
  8
0
  6
Continuous
 62
     7
100
AcDbLine
 10
183.7326975115829
 20
389.8780689363655
 30
0.0
 11
183.3814791288508
 21
391.9713153789771
 31
0.0
  0
LINE
  5
B1
330
47
100
AcDbEntity
  8
0
  6
Continuous
 62
     7
100
AcDbLine
 10
176.9437247658487
 20
366.2901271458599
 30
0.0
 11
176.9437247658487
 21
361.7001925058024
 31
0.0
  0
LINE
  5
B2
330
47
100
AcDbEntity
  8
0
  6
Continuous
 62
     7
100
AcDbLine
 10
176.9437247658487
 20
361.7001925058024
 30
0.0
 11
209.5062799481436
 21
352.3001925058023
 31
0.0
  0
ENDBLK
  5
49
330
47
100
AcDbEntity
  8
0
100
AcDbBlockEnd
  0
BLOCK
  5
4C
330
4A
100
AcDbEntity
  8
0
100
AcDbBlockBegin
  2
AllgSicht1
 70
     0
 10
193.750002999998
 20
373.00000241754
 30
0.0
  3
AllgSicht1
  1

  0
INSERT
  5
4B
330
4A
100
AcDbEntity
  8
0
100
AcDbBlockReference
  2
D-UK_4_10_BU-select__1
 10
174.8219625265768
 20
352.3001925058023
 30
0.0
  0
ENDBLK
  5
4D
330
4A
100
AcDbEntity
  8
0
100
AcDbBlockEnd
  0
BLOCK
  5
4F
330
4E
100
AcDbEntity
  8
0
100
AcDbBlockBegin
  2
D-UK_4_10_BU-select__2
 70
     0
 10
18.00000018367247
 20
381.2500088909683
 30
0.0
  3
D-UK_4_10_BU-select__2
  1

  0
LINE
  5
B3
330
4E
100
AcDbEntity
  8
0
  6
Continuous
 62
     7
100
AcDbLine
 10
18.00000018367247
 20
381.2500088909683
 30
0.0
 11
18.00000018367247
 21
383.0500088909683
 31
0.0
  0
LINE
  5
B4
330
4E
100
AcDbEntity
  8
0
  6
Continuous
 62
     7
100
AcDbLine
 10
51.65555223930193
 20
381.2500088909683
 30
0.0
 11
51.25000018367246
 21
381.2500088909683
 31
0.0
  0
LINE
  5
B5
330
4E
100
AcDbEntity
  8
0
  6
Continuous
 62
     7
100
AcDbLine
 10
51.25000018367246
 20
381.2500088909683
 30
0.0
 11
27.25000018367248
 21
381.2500088909683
 31
0.0
  0
LINE
  5
B6
330
4E
100
AcDbEntity
  8
0
  6
Continuous
 62
     7
100
AcDbLine
 10
60.50000018367244
 20
381.2500088909683
 30
0.0
 11
52.35000018367229
 21
381.2500088909683
 31
0.0
  0
LINE
  5
B7
330
4E
100
AcDbEntity
  8
0
  6
Continuous
 62
     7
100
AcDbLine
 10
26.84444812804299
 20
381.2500088909683
 30
0.0
 11
26.15000018367263
 21
381.2500088909683
 31
0.0
  0
LINE
  5
B8
330
4E
100
AcDbEntity
  8
0
  6
Continuous
 62
     7
100
AcDbLine
 10
51.25000018367246
 20
383.0500088909683
 30
0.0
 11
51.25000018367246
 21
381.2500088909683
 31
0.0
  0
LINE
  5
B9
330
4E
100
AcDbEntity
  8
0
  6
Continuous
 62
     7
100
AcDbLine
 10
51.65555223930193
 20
383.0500088909683
 30
0.0
 11
51.25000018367246
 21
383.0500088909683
 31
0.0
  0
LINE
  5
BA
330
4E
100
AcDbEntity
  8
0
  6
Continuous
 62
     7
100
AcDbLine
 10
27.25000018367248
 20
383.0500088909683
 30
0.0
 11
26.84444812804299
 21
383.0500088909683
 31
0.0
  0
LINE
  5
BB
330
4E
100
AcDbEntity
  8
0
  6
Continuous
 62
     7
100
AcDbLine
 10
27.25000018367248
 20
381.2500088909683
 30
0.0
 11
26.84444812804299
 21
381.2500088909683
 31
0.0
  0
LINE
  5
BC
330
4E
100
AcDbEntity
  8
0
  6
Continuous
 62
     7
100
AcDbLine
 10
26.84444812804299
 20
381.2500088909683
 30
0.0
 11
26.84444812804299
 21
383.0500088909683
 31
0.0
  0
LINE
  5
BD
330
4E
100
AcDbEntity
  8
0
  6
Continuous
 62
     7
100
AcDbLine
 10
27.25000018367248
 20
381.2500088909683
 30
0.0
 11
27.25000018367248
 21
383.0500088909683
 31
0.0
  0
LINE
  5
BE
330
4E
100
AcDbEntity
  8
0
  6
Continuous
 62
     7
100
AcDbLine
 10
18.00000018367247
 20
383.0500088909683
 30
0.0
 11
26.15000018367245
 21
383.0500088909683
 31
0.0
  0
LINE
  5
BF
330
4E
100
AcDbEntity
  8
0
  6
Continuous
 62
     7
100
AcDbLine
 10
26.84444812804299
 20
383.0500088909683
 30
0.0
 11
26.15000018367245
 21
383.0500088909683
 31
0.0
  0
LINE
  5
C0
330
4E
100
AcDbEntity
  8
0
  6
Continuous
 62
     7
100
AcDbLine
 10
26.15000018367245
 20
383.0500088909683
 30
0.0
 11
26.15000018367263
 21
381.2500088909683
 31
0.0
  0
LINE
  5
C1
330
4E
100
AcDbEntity
  8
0
  6
Continuous
 62
     7
100
AcDbLine
 10
26.15000018367263
 20
381.2500088909683
 30
0.0
 11
18.00000018367247
 21
381.2500088909683
 31
0.0
  0
LINE
  5
C2
330
4E
100
AcDbEntity
  8
0
  6
Continuous
 62
     7
100
AcDbLine
 10
52.35000018367241
 20
383.0500088909683
 30
0.0
 11
60.50000018367244
 21
383.0500088909683
 31
0.0
  0
LINE
  5
C3
330
4E
100
AcDbEntity
  8
0
  6
Continuous
 62
     7
100
AcDbLine
 10
60.50000018367244
 20
383.0500088909683
 30
0.0
 11
60.50000018367244
 21
381.2500088909683
 31
0.0
  0
LINE
  5
C4
330
4E
100
AcDbEntity
  8
0
  6
Continuous
 62
     7
100
AcDbLine
 10
52.35000018367241
 20
383.0500088909683
 30
0.0
 11
51.65555223930193
 21
383.0500088909683
 31
0.0
  0
LINE
  5
C5
330
4E
100
AcDbEntity
  8
0
  6
Continuous
 62
     7
100
AcDbLine
 10
52.35000018367229
 20
381.2500088909683
 30
0.0
 11
52.35000018367241
 21
383.0500088909683
 31
0.0
  0
LINE
  5
C6
330
4E
100
AcDbEntity
  8
0
  6
Continuous
 62
     7
100
AcDbLine
 10
52.35000018367229
 20
381.2500088909683
 30
0.0
 11
51.65555223930193
 21
381.2500088909683
 31
0.0
  0
LINE
  5
C7
330
4E
100
AcDbEntity
  8
0
  6
Continuous
 62
     7
100
AcDbLine
 10
51.65555223930193
 20
381.2500088909683
 30
0.0
 11
51.65555223930193
 21
383.0500088909683
 31
0.0
  0
LINE
  5
C8
330
4E
100
AcDbEntity
  8
0
  6
Continuous
 62
     7
100
AcDbLine
 10
51.25000018367246
 20
383.0500088909683
 30
0.0
 11
27.25000018367248
 21
383.0500088909683
 31
0.0
  0
ENDBLK
  5
50
330
4E
100
AcDbEntity
  8
0
100
AcDbBlockEnd
  0
BLOCK
  5
53
330
51
100
AcDbEntity
  8
0
100
AcDbBlockBegin
  2
Drfsicht1
 70
     0
 10
39.25000095367439
 20
382.3000088432896
 30
0.0
  3
Drfsicht1
  1

  0
INSERT
  5
52
330
51
100
AcDbEntity
  8
0
100
AcDbBlockReference
  2
D-UK_4_10_BU-select__2
 10
18.00000018367247
 20
381.2500088909683
 30
0.0
  0
DIMENSION
  5
D6
330
51
100
AcDbEntity
  8
1
100
AcDbDimension
  2
*D17
 10
8.0000001836723
 20
383.0500088909683
 30
0.0
 11
4.5750001836723
 21
390.1747093804029
 31
0.0
 70
    33
  1
<>
 71
     5
 42
-1.0
 53
90.0
  3
ME10_DIM_10
100
AcDbAlignedDimension
 13
18.00000018367247
 23
381.2500088909683
 33
0.0
 14
18.00000018367247
 24
383.0500088909683
 34
0.0
  0
ENDBLK
  5
54
330
51
100
AcDbEntity
  8
0
100
AcDbBlockEnd
  0
BLOCK
  5
56
330
55
100
AcDbEntity
  8
0
100
AcDbBlockBegin
  2
D-UK_4_10_BU-select__3
 70
     0
 10
134.5000036310249
 20
413.0500134263714
 30
0.0
  3
D-UK_4_10_BU-select__3
  1

  0
LINE
  5
D7
330
55
100
AcDbEntity
  8
0
  6
Continuous
 62
     7
100
AcDbLine
 10
173.7500036310249
 20
435.0500134263714
 30
0.0
 11
173.7500036310249
 21
418.8118936417231
 31
0.0
  0
LINE
  5
D8
330
55
100
AcDbEntity
  8
0
  6
Continuous
 62
     7
100
AcDbLine
 10
136.9500036310249
 20
413.0500134263714
 30
0.0
 11
174.5500036310249
 21
413.0500134263714
 31
0.0
  0
LINE
  5
D9
330
55
100
AcDbEntity
  8
0
  6
Continuous
 62
     7
100
AcDbLine
 10
174.5500036310249
 20
413.0500134263714
 30
0.0
 11
174.5500036310249
 21
418.3500134263715
 31
0.0
  0
LINE
  5
DA
330
55
100
AcDbEntity
  8
0
  6
Continuous
 62
     7
100
AcDbLine
 10
175.850003631025
 20
438.6873201222661
 30
0.0
 11
173.7500036310249
 21
435.0500134263714
 31
0.0
  0
LINE
  5
DB
330
55
100
AcDbEntity
  8
0
  6
Continuous
 62
     7
100
AcDbLine
 10
174.5500036310249
 20
418.3500134263715
 30
0.0
 11
173.7500036310249
 21
418.8118936417231
 31
0.0
  0
LINE
  5
DC
330
55
100
AcDbEntity
  8
0
  6
Continuous
 62
     7
100
AcDbLine
 10
134.5000036310249
 20
438.9954616935618
 30
0.0
 11
135.6500036310249
 21
438.687320122266
 31
0.0
  0
LINE
  5
DD
330
55
100
AcDbEntity
  8
0
  6
Continuous
 62
     7
100
AcDbLine
 10
137.7500036310249
 20
435.0500134263714
 30
0.0
 11
135.6500036310249
 21
438.687320122266
 31
0.0
  0
LINE
  5
DE
330
55
100
AcDbEntity
  8
0
  6
Continuous
 62
     7
100
AcDbLine
 10
137.7500036310249
 20
418.8118936417231
 30
0.0
 11
137.7500036310249
 21
435.0500134263714
 31
0.0
  0
LINE
  5
DF
330
55
100
AcDbEntity
  8
0
  6
Continuous
 62
     7
100
AcDbLine
 10
137.7500036310249
 20
418.8118936417231
 30
0.0
 11
136.9500036310249
 21
418.3500134263714
 31
0.0
  0
LINE
  5
E0
330
55
100
AcDbEntity
  8
0
  6
Continuous
 62
     7
100
AcDbLine
 10
142.650003631025
 20
448.9500134263715
 30
0.0
 11
143.3444515753955
 21
448.9500134263714
 31
0.0
  0
LINE
  5
E1
330
55
100
AcDbEntity
  8
0
  6
Continuous
 62
     7
100
AcDbLine
 10
142.650003631025
 20
448.9500134263715
 30
0.0
 11
134.500003631025
 21
440.8000134263714
 31
0.0
  0
LINE
  5
E2
330
55
100
AcDbEntity
  8
0
  6
Continuous
 62
     7
100
AcDbLine
 10
143.3444515753955
 20
448.9500134263714
 30
0.0
 11
143.7500036310249
 21
446.6500134263714
 31
0.0
  0
LINE
  5
E3
330
55
100
AcDbEntity
  8
0
  6
Continuous
 62
     7
100
AcDbLine
 10
143.7500036310249
 20
446.6500134263714
 30
0.0
 11
167.7500036310249
 21
446.6500134263714
 31
0.0
  0
LINE
  5
E4
330
55
100
AcDbEntity
  8
0
  6
Continuous
 62
     7
100
AcDbLine
 10
167.7500036310249
 20
446.6500134263714
 30
0.0
 11
168.1555556866544
 21
448.9500134263714
 31
0.0
  0
LINE
  5
E5
330
55
100
AcDbEntity
  8
0
  6
Continuous
 62
     7
100
AcDbLine
 10
168.1555556866544
 20
448.9500134263714
 30
0.0
 11
168.850003631025
 21
448.9500134263714
 31
0.0
  0
LINE
  5
E6
330
55
100
AcDbEntity
  8
0
  6
Continuous
 62
     7
100
AcDbLine
 10
134.5000036310249
 20
438.9954616935618
 30
0.0
 11
134.500003631025
 21
440.8000134263714
 31
0.0
  0
LINE
  5
E7
330
55
100
AcDbEntity
  8
0
  6
Continuous
 62
     7
100
AcDbLine
 10
136.9500036310249
 20
413.0500134263714
 30
0.0
 11
136.9500036310249
 21
418.3500134263714
 31
0.0
  0
LINE
  5
E8
330
55
100
AcDbEntity
  8
0
  6
Continuous
 62
     7
100
AcDbLine
 10
177.0000036310249
 20
440.8000134263714
 30
0.0
 11
177.0000036310249
 21
438.9954616935618
 31
0.0
  0
LINE
  5
E9
330
55
100
AcDbEntity
  8
0
  6
Continuous
 62
     7
100
AcDbLine
 10
175.850003631025
 20
438.6873201222661
 30
0.0
 11
177.0000036310249
 21
438.9954616935618
 31
0.0
  0
LINE
  5
EA
330
55
100
AcDbEntity
  8
0
  6
Continuous
 62
     7
100
AcDbLine
 10
177.0000036310249
 20
440.8000134263714
 30
0.0
 11
168.850003631025
 21
448.9500134263714
 31
0.0
  0
ENDBLK
  5
57
330
55
100
AcDbEntity
  8
0
100
AcDbBlockEnd
  0
BLOCK
  5
5A
330
58
100
AcDbEntity
  8
0
100
AcDbBlockBegin
  2
Rckans1
 70
     0
 10
155.750002861023
 20
431.0000027915403
 30
0.0
  3
Rckans1
  1

  0
INSERT
  5
59
330
58
100
AcDbEntity
  8
0
100
AcDbBlockReference
  2
D-UK_4_10_BU-select__3
 10
134.5000036310249
 20
413.0500134263714
 30
0.0
  0
ENDBLK
  5
5B
330
58
100
AcDbEntity
  8
0
100
AcDbBlockEnd
  0
BLOCK
  5
5D
330
5C
100
AcDbEntity
  8
0
100
AcDbBlockBegin
  2
D-UK_4_10_BU-select__4
 70
     0
 10
95.75000185968
 20
413.0500134263708
 30
0.0
  3
D-UK_4_10_BU-select__4
  1

  0
LINE
  5
EB
330
5C
100
AcDbEntity
  8
0
  6
Continuous
 62
     7
100
AcDbLine
 10
95.75000185968
 20
413.0500134263708
 30
0.0
 11
95.75000185968
 21
418.3500134263709
 31
0.0
  0
LINE
  5
EC
330
5C
100
AcDbEntity
  8
0
  6
Continuous
 62
     7
100
AcDbLine
 10
95.75000185968
 20
418.3500134263709
 30
0.0
 11
95.75000185968
 21
418.8118936417225
 31
0.0
  0
LINE
  5
ED
330
5C
100
AcDbEntity
  8
0
  6
Continuous
 62
     7
100
AcDbLine
 10
95.75000185968
 20
418.3500134263709
 30
0.0
 11
97.55000185968
 21
418.3500134263709
 31
0.0
  0
LINE
  5
EE
330
5C
100
AcDbEntity
  8
0
  6
Continuous
 62
     7
100
AcDbLine
 10
97.55000185968
 20
418.8118936417225
 30
0.0
 11
95.75000185968
 21
418.8118936417225
 31
0.0
  0
LINE
  5
EF
330
5C
100
AcDbEntity
  8
0
  6
Continuous
 62
     7
100
AcDbLine
 10
97.55000185968
 20
448.9500134263708
 30
0.0
 11
97.55000185968
 21
440.8000134263708
 31
0.0
  0
LINE
  5
F0
330
5C
100
AcDbEntity
  8
0
  6
Continuous
 62
     7
100
AcDbLine
 10
97.55000185968
 20
440.8000134263708
 30
0.0
 11
97.55000185968
 21
438.9954616935611
 31
0.0
  0
LINE
  5
F1
330
5C
100
AcDbEntity
  8
0
  6
Continuous
 62
     7
100
AcDbLine
 10
95.75000185968
 20
448.9500134263708
 30
0.0
 11
97.55000185968
 21
448.9500134263708
 31
0.0
  0
LINE
  5
F2
330
5C
100
AcDbEntity
  8
0
  6
Continuous
 62
     7
100
AcDbLine
 10
95.75000185968
 20
440.8000134263708
 30
0.0
 11
95.75000185968
 21
448.9500134263708
 31
0.0
  0
LINE
  5
F3
330
5C
100
AcDbEntity
  8
0
  6
Continuous
 62
     7
100
AcDbLine
 10
95.75000185968
 20
440.8000134263708
 30
0.0
 11
95.75000185968
 21
438.9954616935611
 31
0.0
  0
LINE
  5
F4
330
5C
100
AcDbEntity
  8
0
  6
Continuous
 62
     7
100
AcDbLine
 10
95.75000185968
 20
438.6873201222655
 30
0.0
 11
95.75000185968
 21
438.9954616935611
 31
0.0
  0
LINE
  5
F5
330
5C
100
AcDbEntity
  8
0
  6
Continuous
 62
     7
100
AcDbLine
 10
95.75000185968
 20
438.6873201222655
 30
0.0
 11
95.75000185968
 21
435.0500134263708
 31
0.0
  0
LINE
  5
F6
330
5C
100
AcDbEntity
  8
0
  6
Continuous
 62
     7
100
AcDbLine
 10
97.55000185968
 20
440.8000134263708
 30
0.0
 11
95.75000185968
 21
440.8000134263708
 31
0.0
  0
LINE
  5
F7
330
5C
100
AcDbEntity
  8
0
  6
Continuous
 62
     7
100
AcDbLine
 10
95.75000185968
 20
438.9954616935611
 30
0.0
 11
97.55000185968
 21
438.9954616935611
 31
0.0
  0
LINE
  5
F8
330
5C
100
AcDbEntity
  8
0
  6
Continuous
 62
     7
100
AcDbLine
 10
97.55000185968
 20
413.0500134263708
 30
0.0
 11
95.75000185968
 21
413.0500134263708
 31
0.0
  0
LINE
  5
F9
330
5C
100
AcDbEntity
  8
0
  6
Continuous
 62
     7
100
AcDbLine
 10
95.75000185968
 20
438.6873201222655
 30
0.0
 11
97.55000185968
 21
438.6873201222655
 31
0.0
  0
LINE
  5
FA
330
5C
100
AcDbEntity
  8
0
  6
Continuous
 62
     7
100
AcDbLine
 10
95.75000185968
 20
435.0500134263708
 30
0.0
 11
97.55000185968
 21
435.0500134263709
 31
0.0
  0
LINE
  5
FB
330
5C
100
AcDbEntity
  8
0
  6
Continuous
 62
     7
100
AcDbLine
 10
97.55000185968
 20
418.8118936417225
 30
0.0
 11
97.55000185968
 21
418.3500134263709
 31
0.0
  0
LINE
  5
FC
330
5C
100
AcDbEntity
  8
0
  6
Continuous
 62
     7
100
AcDbLine
 10
97.55000185968
 20
418.3500134263709
 30
0.0
 11
97.55000185968
 21
413.0500134263708
 31
0.0
  0
LINE
  5
FD
330
5C
100
AcDbEntity
  8
0
  6
Continuous
 62
     7
100
AcDbLine
 10
97.55000185968
 20
438.6873201222655
 30
0.0
 11
97.55000185968
 21
435.0500134263709
 31
0.0
  0
LINE
  5
FE
330
5C
100
AcDbEntity
  8
0
  6
Continuous
 62
     7
100
AcDbLine
 10
97.55000185968
 20
438.9954616935611
 30
0.0
 11
97.55000185968
 21
438.6873201222655
 31
0.0
  0
LINE
  5
FF
330
5C
100
AcDbEntity
  8
0
  6
Continuous
 62
     7
100
AcDbLine
 10
97.55000185968
 20
435.0500134263709
 30
0.0
 11
97.55000185968
 21
418.8118936417225
 31
0.0
  0
LINE
  5
100
330
5C
100
AcDbEntity
  8
0
  6
Continuous
 62
     7
100
AcDbLine
 10
95.75000185968
 20
435.0500134263708
 30
0.0
 11
95.75000185968
 21
418.8118936417225
 31
0.0
  0
ENDBLK
  5
5E
330
5C
100
AcDbEntity
  8
0
100
AcDbBlockEnd
  0
BLOCK
  5
61
330
5F
100
AcDbEntity
  8
0
100
AcDbBlockBegin
  2
SA_Links1
 70
     0
 10
96.50000190735871
 20
431.0000027915397
 30
0.0
  3
SA_Links1
  1

  0
INSERT
  5
60
330
5F
100
AcDbEntity
  8
0
100
AcDbBlockReference
  2
D-UK_4_10_BU-select__4
 10
95.75000185968
 20
413.0500134263708
 30
0.0
  0
ENDBLK
  5
62
330
5F
100
AcDbEntity
  8
0
100
AcDbBlockEnd
  0
BLOCK
  5
64
330
63
100
AcDbEntity
  8
0
100
AcDbBlockBegin
  2
D-UK_4_10_BU-select__5
 70
     0
 10
-26.04999995232628
 20
413.0500134263709
 30
0.0
  3
D-UK_4_10_BU-select__5
  1

  0
LINE
  5
101
330
63
100
AcDbEntity
  8
0
  6
Continuous
 62
     7
100
AcDbLine
 10
-26.04999995232628
 20
438.9954616935613
 30
0.0
 11
-26.04999995232628
 21
440.8000134263709
 31
0.0
  0
LINE
  5
102
330
63
100
AcDbEntity
  8
0
  6
Continuous
 62
     7
100
AcDbLine
 10
-24.24999995232628
 20
440.8000134263709
 30
0.0
 11
-26.04999995232628
 21
440.8000134263709
 31
0.0
  0
LINE
  5
103
330
63
100
AcDbEntity
  8
0
  6
Continuous
 62
     7
100
AcDbLine
 10
-26.04999995232628
 20
438.9954616935613
 30
0.0
 11
-24.24999995232628
 21
438.9954616935613
 31
0.0
  0
LINE
  5
104
330
63
100
AcDbEntity
  8
0
  6
Continuous
 62
     7
100
AcDbLine
 10
-24.24999995232628
 20
438.9954616935613
 30
0.0
 11
-24.24999995232628
 21
440.8000134263709
 31
0.0
  0
LINE
  5
105
330
63
100
AcDbEntity
  8
0
  6
Continuous
 62
     7
100
AcDbLine
 10
-26.04999995232628
 20
448.9500134263709
 30
0.0
 11
-24.24999995232628
 21
448.9500134263709
 31
0.0
  0
LINE
  5
106
330
63
100
AcDbEntity
  8
0
  6
Continuous
 62
     7
100
AcDbLine
 10
-24.24999995232628
 20
440.8000134263709
 30
0.0
 11
-24.24999995232628
 21
448.9500134263709
 31
0.0
  0
LINE
  5
107
330
63
100
AcDbEntity
  8
0
  6
Continuous
 62
     7
100
AcDbLine
 10
-24.24999995232628
 20
418.8118936417226
 30
0.0
 11
-24.24999995232628
 21
418.3500134263709
 31
0.0
  0
LINE
  5
108
330
63
100
AcDbEntity
  8
0
  6
Continuous
 62
     7
100
AcDbLine
 10
-24.24999995232628
 20
438.9954616935613
 30
0.0
 11
-24.24999995232628
 21
438.6873201222655
 31
0.0
  0
LINE
  5
109
330
63
100
AcDbEntity
  8
0
  6
Continuous
 62
     7
100
AcDbLine
 10
-24.24999995232628
 20
413.0500134263709
 30
0.0
 11
-24.24999995232628
 21
418.3500134263709
 31
0.0
  0
LINE
  5
10A
330
63
100
AcDbEntity
  8
0
  6
Continuous
 62
     7
100
AcDbLine
 10
-24.24999995232628
 20
435.0500134263709
 30
0.0
 11
-24.24999995232628
 21
438.6873201222655
 31
0.0
  0
LINE
  5
10B
330
63
100
AcDbEntity
  8
0
  6
Continuous
 62
     7
100
AcDbLine
 10
-26.04999995232628
 20
440.8000134263709
 30
0.0
 11
-26.04999995232628
 21
448.9500134263709
 31
0.0
  0
LINE
  5
10C
330
63
100
AcDbEntity
  8
0
  6
Continuous
 62
     7
100
AcDbLine
 10
-26.04999995232628
 20
438.6873201222655
 30
0.0
 11
-26.04999995232628
 21
438.9954616935613
 31
0.0
  0
LINE
  5
10D
330
63
100
AcDbEntity
  8
0
  6
Continuous
 62
     7
100
AcDbLine
 10
-26.04999995232628
 20
435.050013426371
 30
0.0
 11
-26.04999995232628
 21
438.6873201222655
 31
0.0
  0
LINE
  5
10E
330
63
100
AcDbEntity
  8
0
  6
Continuous
 62
     7
100
AcDbLine
 10
-26.04999995232628
 20
435.050013426371
 30
0.0
 11
-24.24999995232628
 21
435.0500134263709
 31
0.0
  0
LINE
  5
10F
330
63
100
AcDbEntity
  8
0
  6
Continuous
 62
     7
100
AcDbLine
 10
-26.04999995232628
 20
418.8118936417226
 30
0.0
 11
-26.04999995232628
 21
435.050013426371
 31
0.0
  0
LINE
  5
110
330
63
100
AcDbEntity
  8
0
  6
Continuous
 62
     7
100
AcDbLine
 10
-24.24999995232628
 20
418.8118936417226
 30
0.0
 11
-26.04999995232628
 21
418.8118936417226
 31
0.0
  0
LINE
  5
111
330
63
100
AcDbEntity
  8
0
  6
Continuous
 62
     7
100
AcDbLine
 10
-26.04999995232628
 20
438.6873201222655
 30
0.0
 11
-24.24999995232628
 21
438.6873201222655
 31
0.0
  0
LINE
  5
112
330
63
100
AcDbEntity
  8
0
  6
Continuous
 62
     7
100
AcDbLine
 10
-26.04999995232628
 20
413.0500134263709
 30
0.0
 11
-26.04999995232628
 21
418.3500134263709
 31
0.0
  0
LINE
  5
113
330
63
100
AcDbEntity
  8
0
  6
Continuous
 62
     7
100
AcDbLine
 10
-26.04999995232628
 20
418.3500134263709
 30
0.0
 11
-26.04999995232628
 21
418.8118936417226
 31
0.0
  0
LINE
  5
114
330
63
100
AcDbEntity
  8
0
  6
Continuous
 62
     7
100
AcDbLine
 10
-24.24999995232628
 20
418.3500134263709
 30
0.0
 11
-26.04999995232628
 21
418.3500134263709
 31
0.0
  0
LINE
  5
115
330
63
100
AcDbEntity
  8
0
  6
Continuous
 62
     7
100
AcDbLine
 10
-26.04999995232628
 20
413.0500134263709
 30
0.0
 11
-24.24999995232628
 21
413.0500134263709
 31
0.0
  0
LINE
  5
116
330
63
100
AcDbEntity
  8
0
  6
Continuous
 62
     7
100
AcDbLine
 10
-24.24999995232628
 20
418.8118936417226
 30
0.0
 11
-24.24999995232628
 21
435.0500134263709
 31
0.0
  0
ENDBLK
  5
65
330
63
100
AcDbEntity
  8
0
100
AcDbBlockEnd
  0
BLOCK
  5
68
330
66
100
AcDbEntity
  8
0
100
AcDbBlockBegin
  2
SA_Rechts1
 70
     0
 10
-25.000000000005
 20
431.0000027915398
 30
0.0
  3
SA_Rechts1
  1

  0
INSERT
  5
67
330
66
100
AcDbEntity
  8
0
100
AcDbBlockReference
  2
D-UK_4_10_BU-select__5
 10
-26.04999995232628
 20
413.0500134263709
 30
0.0
  0
ENDBLK
  5
69
330
66
100
AcDbEntity
  8
0
100
AcDbBlockEnd
  0
BLOCK
  5
6B
330
6A
100
AcDbEntity
  8
0
100
AcDbBlockBegin
  2
D-UK_4_10_BU-select__6
 70
     0
 10
18.00000018367247
 20
413.0500134263709
 30
0.0
  3
D-UK_4_10_BU-select__6
  1

  0
LINE
  5
117
330
6A
100
AcDbEntity
  8
0
  6
Continuous
 62
     7
100
AcDbLine
 10
26.84444812804299
 20
448.9500134263709
 30
0.0
 11
26.15000018367263
 21
448.9500134263709
 31
0.0
  0
LINE
  5
118
330
6A
100
AcDbEntity
  8
0
  6
Continuous
 62
     7
100
AcDbLine
 10
19.15000018367242
 20
438.6873201222655
 30
0.0
 11
21.25000018367243
 21
435.0500134263709
 31
0.0
  0
LINE
  5
119
330
6A
100
AcDbEntity
  8
0
  6
Continuous
 62
     7
100
AcDbLine
 10
27.25000018367248
 20
446.6500134263709
 30
0.0
 11
26.84444812804299
 21
448.9500134263709
 31
0.0
  0
LINE
  5
11A
330
6A
100
AcDbEntity
  8
0
  6
Continuous
 62
     7
100
AcDbLine
 10
57.2500001836725
 20
418.8118936417226
 30
0.0
 11
57.2500001836725
 21
435.050013426371
 31
0.0
  0
LINE
  5
11B
330
6A
100
AcDbEntity
  8
0
  6
Continuous
 62
     7
100
AcDbLine
 10
57.2500001836725
 20
435.050013426371
 30
0.0
 11
59.35000018367263
 21
438.6873201222655
 31
0.0
  0
LINE
  5
11C
330
6A
100
AcDbEntity
  8
0
  6
Continuous
 62
     7
100
AcDbLine
 10
60.50000018367244
 20
440.8000134263709
 30
0.0
 11
52.35000018367229
 21
448.950013426371
 31
0.0
  0
LINE
  5
11D
330
6A
100
AcDbEntity
  8
0
  6
Continuous
 62
     7
100
AcDbLine
 10
18.00000018367247
 20
438.9954616935613
 30
0.0
 11
19.15000018367242
 21
438.6873201222655
 31
0.0
  0
LINE
  5
11E
330
6A
100
AcDbEntity
  8
0
  6
Continuous
 62
     7
100
AcDbLine
 10
59.35000018367263
 20
438.6873201222655
 30
0.0
 11
60.50000018367247
 21
438.9954616935613
 31
0.0
  0
LINE
  5
11F
330
6A
100
AcDbEntity
  8
0
  6
Continuous
 62
     7
100
AcDbLine
 10
20.45000018367245
 20
413.0500134263709
 30
0.0
 11
58.05000018367247
 21
413.0500134263709
 31
0.0
  0
LINE
  5
120
330
6A
100
AcDbEntity
  8
0
  6
Continuous
 62
     7
100
AcDbLine
 10
20.45000018367247
 20
418.3500134263709
 30
0.0
 11
20.45000018367245
 21
413.0500134263709
 31
0.0
  0
LINE
  5
121
330
6A
100
AcDbEntity
  8
0
  6
Continuous
 62
     7
100
AcDbLine
 10
21.25000018367248
 20
418.8118936417226
 30
0.0
 11
20.45000018367247
 21
418.3500134263709
 31
0.0
  0
LINE
  5
122
330
6A
100
AcDbEntity
  8
0
  6
Continuous
 62
     7
100
AcDbLine
 10
21.25000018367243
 20
435.0500134263709
 30
0.0
 11
21.25000018367248
 21
418.8118936417226
 31
0.0
  0
LINE
  5
123
330
6A
100
AcDbEntity
  8
0
  6
Continuous
 62
     7
100
AcDbLine
 10
18.00000018367247
 20
440.8000134263709
 30
0.0
 11
18.00000018367247
 21
438.9954616935613
 31
0.0
  0
LINE
  5
124
330
6A
100
AcDbEntity
  8
0
  6
Continuous
 62
     7
100
AcDbLine
 10
51.25000018367246
 20
446.6500134263709
 30
0.0
 11
27.25000018367248
 21
446.6500134263709
 31
0.0
  0
LINE
  5
125
330
6A
100
AcDbEntity
  8
0
  6
Continuous
 62
     7
100
AcDbLine
 10
58.05000018367247
 20
413.0500134263709
 30
0.0
 11
58.05000018367247
 21
418.3500134263709
 31
0.0
  0
LINE
  5
126
330
6A
100
AcDbEntity
  8
0
  6
Continuous
 62
     7
100
AcDbLine
 10
60.50000018367247
 20
438.9954616935613
 30
0.0
 11
60.50000018367244
 21
440.8000134263709
 31
0.0
  0
LINE
  5
127
330
6A
100
AcDbEntity
  8
0
  6
Continuous
 62
     7
100
AcDbLine
 10
58.05000018367247
 20
418.3500134263709
 30
0.0
 11
57.2500001836725
 21
418.8118936417226
 31
0.0
  0
LINE
  5
128
330
6A
100
AcDbEntity
  8
0
  6
Continuous
 62
     7
100
AcDbLine
 10
52.35000018367229
 20
448.950013426371
 30
0.0
 11
51.65555223930193
 21
448.9500134263709
 31
0.0
  0
LINE
  5
129
330
6A
100
AcDbEntity
  8
0
  6
Continuous
 62
     7
100
AcDbLine
 10
51.65555223930193
 20
448.9500134263709
 30
0.0
 11
51.25000018367246
 21
446.6500134263709
 31
0.0
  0
LINE
  5
12A
330
6A
100
AcDbEntity
  8
0
  6
Continuous
 62
     7
100
AcDbLine
 10
26.15000018367263
 20
448.9500134263709
 30
0.0
 11
18.00000018367247
 21
440.8000134263709
 31
0.0
  0
ENDBLK
  5
6C
330
6A
100
AcDbEntity
  8
0
100
AcDbBlockEnd
  0
BLOCK
  5
6F
330
6D
100
AcDbEntity
  8
0
100
AcDbBlockBegin
  2
Vordans1
 70
     0
 10
39.25000095367439
 20
431.0000027915398
 30
0.0
  3
Vordans1
  1

  0
INSERT
  5
6E
330
6D
100
AcDbEntity
  8
0
100
AcDbBlockReference
  2
D-UK_4_10_BU-select__6
 10
18.00000018367247
 20
413.0500134263709
 30
0.0
  0
MTEXT
  5
12B
330
6D
100
AcDbEntity
  8
1
 62
     6
100
AcDbMText
 10
39.25000095367431
 20
408.0500086348345
 30
0.0
 40
5.0
 41
0.0
 71
     2
 72
     1
  1
 
  7
CONVERTER_11
 73
     1
 44
1.32052821128451
  0
DIMENSION
  5
136
330
6D
100
AcDbEntity
  8
1
100
AcDbDimension
  2
*D18
 10
18.00000018367246
 20
400.8327123276957
 30
0.0
 11
39.98454140586916
 21
404.7577123276957
 31
0.0
 70
    32
  1
<>
 71
     5
 42
-1.0
 53
0.00013888888889
  3
ME10_DIM_11
100
AcDbAlignedDimension
 13
60.50000018367247
 23
438.9954616935613
 33
0.0
 14
18.00000018367247
 24
438.9954616935613
 34
0.0
100
AcDbRotatedDimension
  0
DIMENSION
  5
141
330
6D
100
AcDbEntity
  8
1
100
AcDbDimension
  2
*D19
 10
10.86896227348261
 20
413.0500134263709
 30
0.0
 11
6.94396227348261
 21
431.3560513365611
 31
0.0
 70
    32
  1
<>
 71
     5
 42
-1.0
 53
90.0
  3
ME10_DIM_12
100
AcDbAlignedDimension
 13
26.15000018367263
 23
448.9500134263709
 33
0.0
 14
20.45000018367245
 24
413.0500134263709
 34
0.0
 50
90.0
100
AcDbRotatedDimension
  0
ENDBLK
  5
70
330
6D
100
AcDbEntity
  8
0
100
AcDbBlockEnd
  0
BLOCK
  5
72
330
71
100
AcDbEntity
  8
0
100
AcDbBlockBegin
  2
_rahmen
 70
     0
 10
223.8890211175446
 20
315.1900548713705
 30
0.0
  3
_rahmen
  1

  0
LINE
  5
142
330
71
100
AcDbEntity
  8
1
  6
DOT_CENTER
 62
     2
100
AcDbLine
 10
98.33087147735722
 20
341.3150548713705
 30
0.0
 11
103.8308714773572
 21
341.3150548713705
 31
0.0
  0
LINE
  5
143
330
71
100
AcDbEntity
  8
1
  6
PHANTOM
 62
     2
100
AcDbLine
 10
107.0808714773572
 20
344.0650548713705
 30
0.0
 11
107.0808714773572
 21
338.5650548713705
 31
0.0
  0
LINE
  5
144
330
71
100
AcDbEntity
  8
1
  6
PHANTOM
 62
     2
100
AcDbLine
 10
109.8308714773572
 20
341.3150548713705
 30
0.0
 11
104.3308714773572
 21
341.3150548713705
 31
0.0
  0
LINE
  5
145
330
71
100
AcDbEntity
  8
1
  6
Continuous
 62
     7
100
AcDbLine
 10
158.6442165907946
 20
328.6900548713705
 30
0.0
 11
158.6442165907946
 21
337.1900548713707
 31
0.0
  0
LINE
  5
146
330
71
100
AcDbEntity
  8
1
  6
Continuous
 62
     6
100
AcDbLine
 10
130.7442165907945
 20
337.1900548713707
 30
0.0
 11
223.8890211175463
 21
337.1900548713707
 31
0.0
  0
LINE
  5
147
330
71
100
AcDbEntity
  8
1
  6
Continuous
 62
     7
100
AcDbLine
 10
94.34421659079462
 20
337.1900548713707
 30
0.0
 11
94.34421659079462
 21
345.6900548713707
 31
0.0
  0
LINE
  5
148
330
71
100
AcDbEntity
  8
1
  6
Continuous
 62
     7
100
AcDbLine
 10
130.7442165907945
 20
337.1900548713707
 30
0.0
 11
130.7442165907945
 21
345.6900548713707
 31
0.0
  0
LINE
  5
149
330
71
100
AcDbEntity
  8
1
  6
Continuous
 62
     7
100
AcDbLine
 10
188.4706128358675
 20
345.6900548713707
 30
0.0
 11
188.4706128358675
 21
337.1900548713707
 31
0.0
  0
LINE
  5
14A
330
71
100
AcDbEntity
  8
1
  6
Continuous
 62
     7
100
AcDbLine
 10
214.9706128358671
 20
345.6900548713707
 30
0.0
 11
214.9706128358671
 21
337.1900548713707
 31
0.0
  0
LINE
  5
14B
330
71
100
AcDbEntity
  8
1
  6
Continuous
 62
     6
100
AcDbLine
 10
25.34421659079465
 20
320.1900548713707
 30
0.0
 11
-19.61097888245536
 21
320.1900548713707
 31
0.0
  0
LINE
  5
14C
330
71
100
AcDbEntity
  8
1
  6
Continuous
 62
     7
100
AcDbLine
 10
223.8890211175459
 20
328.6900548713707
 30
0.0
 11
130.7442165907945
 21
328.6900548713707
 31
0.0
  0
LINE
  5
14D
102
{ACAD_REACTORS
330
25F
330
260
102
}
330
71
100
AcDbEntity
  8
0
  6
Continuous
 62
     2
100
AcDbLine
 10
108.051645532562
 20
329.490343987034
 30
0.0
 11
108.051645532562
 21
330.3628609938372
 31
0.0
  0
LINE
  5
14E
102
{ACAD_REACTORS
330
25F
330
260
102
}
330
71
100
AcDbEntity
  8
0
  6
Continuous
 62
     2
100
AcDbLine
 10
108.051645532562
 20
328.530575279551
 30
0.0
 11
108.051645532562
 21
327.6580582727478
 31
0.0
  0
LINE
  5
14F
102
{ACAD_REACTORS
330
261
330
262
102
}
330
71
100
AcDbEntity
  8
0
  6
Continuous
 62
     2
100
AcDbLine
 10
123.3846896688525
 20
329.7520990890745
 30
0.0
 11
124.4883289684206
 21
329.7520990890745
 31
0.0
  0
LINE
  5
150
102
{ACAD_REACTORS
330
261
330
262
102
}
330
71
100
AcDbEntity
  8
0
  6
Continuous
 62
     2
100
AcDbLine
 10
124.1543470118139
 20
328.5305752795506
 30
0.0
 11
124.1543470118139
 21
327.6580582727472
 31
0.0
  0
LINE
  5
151
102
{ACAD_REACTORS
330
26B
330
26C
102
}
330
71
100
AcDbEntity
  8
0
  6
Continuous
 62
     2
100
AcDbLine
 10
122.293590396434
 20
330.8427453475613
 30
0.0
 11
123.6915434433743
 21
332.4236043413363
 31
0.0
  0
LINE
  5
152
102
{ACAD_REACTORS
330
26B
330
26C
102
}
330
71
100
AcDbEntity
  8
0
  6
Continuous
 62
     2
100
AcDbLine
 10
122.3890138126068
 20
333.8965548713725
 30
0.0
 11
123.6915434433743
 21
332.4236043413363
 31
0.0
  0
LINE
  5
153
102
{ACAD_REACTORS
330
26B
330
26C
102
}
330
71
100
AcDbEntity
  8
0
  6
Continuous
 62
     2
100
AcDbLine
 10
124.9940730741407
 20
333.8965548713725
 30
0.0
 11
126.3967972918879
 21
333.8965548713725
 31
0.0
  0
LINE
  5
154
102
{ACAD_REACTORS
330
26B
330
26C
102
}
330
71
100
AcDbEntity
  8
0
  6
Continuous
 62
     2
100
AcDbLine
 10
123.6963146141822
 20
330.8427453475613
 30
0.0
 11
124.3929055522479
 21
331.6304771328549
 31
0.0
  0
LINE
  5
155
102
{ACAD_REACTORS
330
26B
330
26C
102
}
330
71
100
AcDbEntity
  8
0
  6
Continuous
 62
     2
100
AcDbLine
 10
123.6963146141822
 20
330.8427453475613
 30
0.0
 11
122.293590396434
 21
330.8427453475613
 31
0.0
  0
LINE
  5
156
102
{ACAD_REACTORS
330
26D
330
26E
102
}
330
71
100
AcDbEntity
  8
0
  6
Continuous
 62
     2
100
AcDbLine
 10
122.1743111262171
 20
330.8427453475613
 30
0.0
 11
120.9338067159642
 21
330.8427453475613
 31
0.0
  0
LINE
  5
157
102
{ACAD_REACTORS
330
26F
330
270
102
}
330
71
100
AcDbEntity
  8
0
  6
Continuous
 62
     2
100
AcDbLine
 10
120.0658271078091
 20
328.7050786809115
 30
0.0
 11
119.765661870619
 21
329.4728936468981
 31
0.0
  0
LINE
  5
158
102
{ACAD_REACTORS
330
26F
330
270
102
}
330
71
100
AcDbEntity
  8
0
  6
Continuous
 62
     2
100
AcDbLine
 10
119.4654966334266
 20
328.7050786809115
 30
0.0
 11
120.0658271078091
 21
328.7050786809115
 31
0.0
  0
LINE
  5
159
102
{ACAD_REACTORS
330
26F
330
270
102
}
330
71
100
AcDbEntity
  8
0
  6
Continuous
 62
     2
100
AcDbLine
 10
117.7474566185528
 20
327.483554871387
 30
0.0
 11
118.9879610288058
 21
327.483554871387
 31
0.0
  0
LINE
  5
15A
102
{ACAD_REACTORS
330
26F
330
270
102
}
330
71
100
AcDbEntity
  8
0
  6
Continuous
 62
     2
100
AcDbLine
 10
119.1454096654921
 20
330.537364395198
 30
0.0
 11
120.3859140757448
 21
330.537364395198
 31
0.0
  0
LINE
  5
15B
102
{ACAD_REACTORS
330
26F
330
270
102
}
330
71
100
AcDbEntity
  8
0
  6
Continuous
 62
     2
100
AcDbLine
 10
120.3859140757448
 20
330.537364395198
 30
0.0
 11
121.7838671226851
 21
327.483554871387
 31
0.0
  0
LINE
  5
15C
102
{ACAD_REACTORS
330
26F
330
270
102
}
330
71
100
AcDbEntity
  8
0
  6
Continuous
 62
     2
100
AcDbLine
 10
120.5433627124312
 20
327.483554871387
 30
0.0
 11
120.3318826589554
 21
328.0245154156048
 31
0.0
  0
LINE
  5
15D
102
{ACAD_REACTORS
330
271
330
272
102
}
330
71
100
AcDbEntity
  8
0
  6
Continuous
 62
     2
100
AcDbLine
 10
116.4010435168452
 20
327.483554871387
 30
0.0
 11
117.5938362190117
 21
327.483554871387
 31
0.0
  0
LINE
  5
15E
102
{ACAD_REACTORS
330
271
330
272
102
}
330
71
100
AcDbEntity
  8
0
  6
Continuous
 62
     2
100
AcDbLine
 10
116.4010435168452
 20
329.7520990890745
 30
0.0
 11
116.4010435168452
 21
327.483554871387
 31
0.0
  0
LINE
  5
15F
102
{ACAD_REACTORS
330
271
330
272
102
}
330
71
100
AcDbEntity
  8
0
  6
Continuous
 62
     2
100
AcDbLine
 10
115.5899444793706
 20
330.537364395198
 30
0.0
 11
115.5899444793706
 21
329.7520990890745
 31
0.0
  0
LINE
  5
160
102
{ACAD_REACTORS
330
273
330
274
102
}
330
71
100
AcDbEntity
  8
0
  6
Continuous
 62
     2
100
AcDbLine
 10
117.0691583609432
 20
330.8427453475613
 30
0.0
 11
118.2619510631097
 21
330.8427453475613
 31
0.0
  0
LINE
  5
161
102
{ACAD_REACTORS
330
273
330
274
102
}
330
71
100
AcDbEntity
  8
0
  6
Continuous
 62
     2
100
AcDbLine
 10
119.5024554733637
 20
332.5877793611672
 30
0.0
 11
118.2619510631097
 21
333.8965548713725
 31
0.0
  0
LINE
  5
162
102
{ACAD_REACTORS
330
273
330
274
102
}
330
71
100
AcDbEntity
  8
0
  6
Continuous
 62
     2
100
AcDbLine
 10
120.6952481755303
 20
333.8965548713725
 30
0.0
 11
119.5024554733637
 21
333.8965548713725
 31
0.0
  0
LINE
  5
163
102
{ACAD_REACTORS
330
273
330
274
102
}
330
71
100
AcDbEntity
  8
0
  6
Continuous
 62
     2
100
AcDbLine
 10
120.6952481755303
 20
330.8427453475613
 30
0.0
 11
120.6952481755303
 21
333.8965548713725
 31
0.0
  0
LINE
  5
164
102
{ACAD_REACTORS
330
273
330
274
102
}
330
71
100
AcDbEntity
  8
0
  6
Continuous
 62
     2
100
AcDbLine
 10
119.5024554733637
 20
330.8427453475613
 30
0.0
 11
120.6952481755303
 21
330.8427453475613
 31
0.0
  0
LINE
  5
165
102
{ACAD_REACTORS
330
273
330
274
102
}
330
71
100
AcDbEntity
  8
0
  6
Continuous
 62
     2
100
AcDbLine
 10
118.2619510631097
 20
332.151520857766
 30
0.0
 11
119.5024554733637
 21
330.8427453475613
 31
0.0
  0
LINE
  5
166
102
{ACAD_REACTORS
330
275
330
276
102
}
330
71
100
AcDbEntity
  8
0
  6
Continuous
 62
     2
100
AcDbLine
 10
114.254016652944
 20
329.228588884993
 30
0.0
 11
113.0135122426911
 21
330.537364395198
 31
0.0
  0
LINE
  5
167
102
{ACAD_REACTORS
330
275
330
276
102
}
330
71
100
AcDbEntity
  8
0
  6
Continuous
 62
     2
100
AcDbLine
 10
114.254016652944
 20
330.537364395198
 30
0.0
 11
114.254016652944
 21
329.228588884993
 31
0.0
  0
LINE
  5
168
102
{ACAD_REACTORS
330
275
330
276
102
}
330
71
100
AcDbEntity
  8
0
  6
Continuous
 62
     2
100
AcDbLine
 10
115.4468093551104
 20
330.537364395198
 30
0.0
 11
114.254016652944
 21
330.537364395198
 31
0.0
  0
LINE
  5
169
102
{ACAD_REACTORS
330
275
330
276
102
}
330
71
100
AcDbEntity
  8
0
  6
Continuous
 62
     2
100
AcDbLine
 10
115.4468093551104
 20
327.483554871387
 30
0.0
 11
115.4468093551104
 21
330.537364395198
 31
0.0
  0
LINE
  5
16A
102
{ACAD_REACTORS
330
275
330
276
102
}
330
71
100
AcDbEntity
  8
0
  6
Continuous
 62
     2
100
AcDbLine
 10
113.0135122426911
 20
328.7923303815916
 30
0.0
 11
114.254016652944
 21
327.483554871387
 31
0.0
  0
LINE
  5
16B
102
{ACAD_REACTORS
330
275
330
276
102
}
330
71
100
AcDbEntity
  8
0
  6
Continuous
 62
     2
100
AcDbLine
 10
113.0135122426911
 20
327.483554871387
 30
0.0
 11
113.0135122426911
 21
328.7923303815916
 31
0.0
  0
LINE
  5
16C
102
{ACAD_REACTORS
330
265
330
266
102
}
330
71
100
AcDbEntity
  8
0
  6
Continuous
 62
     2
100
AcDbLine
 10
115.4946719940826
 20
333.1985412659295
 30
0.0
 11
116.8305998205103
 21
333.1985412659295
 31
0.0
  0
LINE
  5
16D
102
{ACAD_REACTORS
330
265
330
266
102
}
330
71
100
AcDbEntity
  8
0
  6
Continuous
 62
     2
100
AcDbLine
 10
115.4946719940826
 20
331.5407589530038
 30
0.0
 11
115.4946719940826
 21
332.0206433067455
 31
0.0
  0
LINE
  5
16E
102
{ACAD_REACTORS
330
265
330
266
102
}
330
71
100
AcDbEntity
  8
0
  6
Continuous
 62
     2
100
AcDbLine
 10
116.8305998205103
 20
331.5407589530038
 30
0.0
 11
115.4946719940826
 21
331.5407589530038
 31
0.0
  0
LINE
  5
16F
102
{ACAD_REACTORS
330
265
330
266
102
}
330
71
100
AcDbEntity
  8
0
  6
Continuous
 62
     2
100
AcDbLine
 10
116.8305998205103
 20
330.8427453475613
 30
0.0
 11
116.8305998205103
 21
331.5407589530038
 31
0.0
  0
LINE
  5
170
102
{ACAD_REACTORS
330
265
330
266
102
}
330
71
100
AcDbEntity
  8
0
  6
Continuous
 62
     2
100
AcDbLine
 10
113.6802800967293
 20
330.8427453475613
 30
0.0
 11
116.8305998205103
 21
330.8427453475613
 31
0.0
  0
LINE
  5
171
102
{ACAD_REACTORS
330
265
330
266
102
}
330
71
100
AcDbEntity
  8
0
  6
Continuous
 62
     2
100
AcDbLine
 10
113.6802800967293
 20
333.8965548713725
 30
0.0
 11
116.8305998205103
 21
333.8965548713725
 31
0.0
  0
LINE
  5
172
102
{ACAD_REACTORS
330
265
330
266
102
}
330
71
100
AcDbEntity
  8
0
  6
Continuous
 62
     2
100
AcDbLine
 10
116.8305998205103
 20
333.1985412659295
 30
0.0
 11
116.8305998205103
 21
333.8965548713725
 31
0.0
  0
LINE
  5
173
102
{ACAD_REACTORS
330
277
330
278
102
}
330
71
100
AcDbEntity
  8
0
  6
Continuous
 62
     2
100
AcDbLine
 10
110.8189246015893
 20
332.8277215380379
 30
0.0
 11
110.8189246015893
 21
333.8965548713725
 31
0.0
  0
LINE
  5
174
102
{ACAD_REACTORS
330
277
330
278
102
}
330
71
100
AcDbEntity
  8
0
  6
Continuous
 62
     2
100
AcDbLine
 10
110.8189246015893
 20
333.8965548713725
 30
0.0
 11
112.0117173037557
 21
333.8965548713725
 31
0.0
  0
LINE
  5
175
102
{ACAD_REACTORS
330
277
330
278
102
}
330
71
100
AcDbEntity
  8
0
  6
Continuous
 62
     2
100
AcDbLine
 10
110.8189246015893
 20
331.9770174564051
 30
0.0
 11
109.7692670236818
 21
331.9770174564051
 31
0.0
  0
LINE
  5
176
102
{ACAD_REACTORS
330
277
330
278
102
}
330
71
100
AcDbEntity
  8
0
  6
Continuous
 62
     2
100
AcDbLine
 10
109.7692670236818
 20
331.9770174564051
 30
0.0
 11
109.7692670236818
 21
330.8427453475613
 31
0.0
  0
LINE
  5
177
102
{ACAD_REACTORS
330
277
330
278
102
}
330
71
100
AcDbEntity
  8
0
  6
Continuous
 62
     2
100
AcDbLine
 10
108.5764743215152
 20
333.8965548713725
 30
0.0
 11
108.5764743215152
 21
330.8427453475613
 31
0.0
  0
LINE
  5
178
102
{ACAD_REACTORS
330
269
330
26A
102
}
330
71
100
AcDbEntity
  8
0
  6
Continuous
 62
     2
100
AcDbLine
 10
106.6202942899616
 20
332.5277213765901
 30
0.0
 11
106.6202942899616
 21
333.2334490259324
 31
0.0
  0
LINE
  5
179
102
{ACAD_REACTORS
330
269
330
26A
102
}
330
71
100
AcDbEntity
  8
0
  6
Continuous
 62
     2
100
AcDbLine
 10
105.3797898797075
 20
330.8427453475613
 30
0.0
 11
106.6202942899616
 21
330.8427453475613
 31
0.0
  0
LINE
  5
17A
102
{ACAD_REACTORS
330
269
330
26A
102
}
330
71
100
AcDbEntity
  8
0
  6
Continuous
 62
     2
100
AcDbLine
 10
106.6202942899616
 20
330.8427453475613
 30
0.0
 11
106.6202942899616
 21
331.7858235887051
 31
0.0
  0
LINE
  5
17B
102
{ACAD_REACTORS
330
263
330
264
102
}
330
71
100
AcDbEntity
  8
0
  6
Continuous
 62
     2
100
AcDbLine
 10
101.0748440304961
 20
328.1961104269439
 30
0.0
 11
99.59901076948651
 21
328.1961104269439
 31
0.0
  0
LINE
  5
17C
102
{ACAD_REACTORS
330
263
330
264
102
}
330
71
100
AcDbEntity
  8
0
  6
Continuous
 62
     2
100
AcDbLine
 10
98.58087147735722
 20
333.4723102559705
 30
0.0
 11
98.58087147735722
 21
327.9077994867703
 31
0.0
  0
LINE
  5
17D
102
{ACAD_REACTORS
330
263
330
264
102
}
330
71
100
AcDbEntity
  8
0
  6
Continuous
 62
     2
100
AcDbLine
 10
99.00511609274002
 20
333.8965548713543
 30
0.0
 11
104.4784281834568
 21
333.8965548713543
 31
0.0
  0
LINE
  5
17E
102
{ACAD_REACTORS
330
263
330
264
102
}
330
71
100
AcDbEntity
  8
0
  6
Continuous
 62
     2
100
AcDbLine
 10
104.9026727988407
 20
333.4723102559705
 30
0.0
 11
104.9026727988407
 21
327.9077994867703
 31
0.0
  0
LINE
  5
17F
102
{ACAD_REACTORS
330
263
330
264
102
}
330
71
100
AcDbEntity
  8
0
  6
Continuous
 62
     2
100
AcDbLine
 10
104.4784281834568
 20
327.483554871387
 30
0.0
 11
99.00511609274002
 21
327.483554871387
 31
0.0
  0
LINE
  5
180
102
{ACAD_REACTORS
330
263
330
264
102
}
330
71
100
AcDbEntity
  8
0
  6
Continuous
 62
     2
100
AcDbLine
 10
101.3905609535727
 20
328.5118273500206
 30
0.0
 11
101.3905609535727
 21
330.0425982815522
 31
0.0
  0
LINE
  5
181
102
{ACAD_REACTORS
330
263
330
264
102
}
330
71
100
AcDbEntity
  8
0
  6
Continuous
 62
     2
100
AcDbLine
 10
101.3905609535727
 20
332.2642577736772
 30
0.0
 11
101.3905609535727
 21
332.8682823927377
 31
0.0
  0
LINE
  5
182
102
{ACAD_REACTORS
330
263
330
264
102
}
330
71
100
AcDbEntity
  8
0
  6
Continuous
 62
     2
100
AcDbLine
 10
99.59901076948651
 20
333.1839993158138
 30
0.0
 11
101.0748440304961
 21
333.1839993158138
 31
0.0
  0
LINE
  5
183
102
{ACAD_REACTORS
330
263
330
264
102
}
330
71
100
AcDbEntity
  8
0
  6
Continuous
 62
     2
100
AcDbLine
 10
99.28329384641083
 20
332.8682823927377
 30
0.0
 11
99.28329384641083
 21
328.5118273500206
 31
0.0
  0
LINE
  5
184
102
{ACAD_REACTORS
330
269
330
26A
102
}
330
71
100
AcDbEntity
  8
0
  6
Continuous
 62
     2
100
AcDbLine
 10
106.6202942899616
 20
331.7858235887051
 30
0.0
 11
107.3790618777419
 21
331.7858235887051
 31
0.0
  0
LINE
  5
185
102
{ACAD_REACTORS
330
269
330
26A
102
}
330
71
100
AcDbEntity
  8
0
  6
Continuous
 62
     2
100
AcDbLine
 10
105.3797898797075
 20
333.8965548713725
 30
0.0
 11
107.3790618777419
 21
333.8965548713725
 31
0.0
  0
LINE
  5
186
102
{ACAD_REACTORS
330
269
330
26A
102
}
330
71
100
AcDbEntity
  8
0
  6
Continuous
 62
     2
100
AcDbLine
 10
105.3797898797075
 20
333.8965548713725
 30
0.0
 11
105.3797898797075
 21
330.8427453475613
 31
0.0
  0
LINE
  5
187
102
{ACAD_REACTORS
330
269
330
26A
102
}
330
71
100
AcDbEntity
  8
0
  6
Continuous
 62
     2
100
AcDbLine
 10
106.6202942899616
 20
332.5277213765901
 30
0.0
 11
106.9375893515035
 21
332.5277213765901
 31
0.0
  0
LINE
  5
188
102
{ACAD_REACTORS
330
269
330
26A
102
}
330
71
100
AcDbEntity
  8
0
  6
Continuous
 62
     2
100
AcDbLine
 10
106.6202942899616
 20
333.2334490259324
 30
0.0
 11
106.9375893515035
 21
333.2334490259324
 31
0.0
  0
LINE
  5
189
102
{ACAD_REACTORS
330
277
330
278
102
}
330
71
100
AcDbEntity
  8
0
  6
Continuous
 62
     2
100
AcDbLine
 10
109.7692670236818
 20
332.8277215380379
 30
0.0
 11
110.8189246015893
 21
332.8277215380379
 31
0.0
  0
LINE
  5
18A
102
{ACAD_REACTORS
330
277
330
278
102
}
330
71
100
AcDbEntity
  8
0
  6
Continuous
 62
     2
100
AcDbLine
 10
109.7692670236818
 20
333.8965548713725
 30
0.0
 11
109.7692670236818
 21
332.8277215380379
 31
0.0
  0
LINE
  5
18B
102
{ACAD_REACTORS
330
277
330
278
102
}
330
71
100
AcDbEntity
  8
0
  6
Continuous
 62
     2
100
AcDbLine
 10
108.5764743215152
 20
333.8965548713725
 30
0.0
 11
109.7692670236818
 21
333.8965548713725
 31
0.0
  0
LINE
  5
18C
102
{ACAD_REACTORS
330
277
330
278
102
}
330
71
100
AcDbEntity
  8
0
  6
Continuous
 62
     2
100
AcDbLine
 10
109.7692670236818
 20
330.8427453475613
 30
0.0
 11
108.5764743215152
 21
330.8427453475613
 31
0.0
  0
LINE
  5
18D
102
{ACAD_REACTORS
330
277
330
278
102
}
330
71
100
AcDbEntity
  8
0
  6
Continuous
 62
     2
100
AcDbLine
 10
110.8189246015893
 20
330.8427453475613
 30
0.0
 11
110.8189246015893
 21
331.9770174564051
 31
0.0
  0
LINE
  5
18E
102
{ACAD_REACTORS
330
277
330
278
102
}
330
71
100
AcDbEntity
  8
0
  6
Continuous
 62
     2
100
AcDbLine
 10
112.0117173037557
 20
330.8427453475613
 30
0.0
 11
110.8189246015893
 21
330.8427453475613
 31
0.0
  0
LINE
  5
18F
102
{ACAD_REACTORS
330
277
330
278
102
}
330
71
100
AcDbEntity
  8
0
  6
Continuous
 62
     2
100
AcDbLine
 10
112.0117173037557
 20
333.8965548713725
 30
0.0
 11
112.0117173037557
 21
330.8427453475613
 31
0.0
  0
LINE
  5
190
102
{ACAD_REACTORS
330
265
330
266
102
}
330
71
100
AcDbEntity
  8
0
  6
Continuous
 62
     2
100
AcDbLine
 10
115.4946719940826
 20
332.0206433067455
 30
0.0
 11
116.8305998205103
 21
332.0206433067455
 31
0.0
  0
LINE
  5
191
102
{ACAD_REACTORS
330
265
330
266
102
}
330
71
100
AcDbEntity
  8
0
  6
Continuous
 62
     2
100
AcDbLine
 10
116.8305998205103
 20
332.0206433067455
 30
0.0
 11
116.8305998205103
 21
332.7186569121877
 31
0.0
  0
LINE
  5
192
102
{ACAD_REACTORS
330
265
330
266
102
}
330
71
100
AcDbEntity
  8
0
  6
Continuous
 62
     2
100
AcDbLine
 10
116.8305998205103
 20
332.7186569121877
 30
0.0
 11
115.4946719940826
 21
332.7186569121877
 31
0.0
  0
LINE
  5
193
102
{ACAD_REACTORS
330
265
330
266
102
}
330
71
100
AcDbEntity
  8
0
  6
Continuous
 62
     2
100
AcDbLine
 10
115.4946719940826
 20
332.7186569121877
 30
0.0
 11
115.4946719940826
 21
333.1985412659295
 31
0.0
  0
LINE
  5
194
102
{ACAD_REACTORS
330
275
330
276
102
}
330
71
100
AcDbEntity
  8
0
  6
Continuous
 62
     2
100
AcDbLine
 10
111.8207195405235
 20
327.483554871387
 30
0.0
 11
113.0135122426911
 21
327.483554871387
 31
0.0
  0
LINE
  5
195
102
{ACAD_REACTORS
330
275
330
276
102
}
330
71
100
AcDbEntity
  8
0
  6
Continuous
 62
     2
100
AcDbLine
 10
114.254016652944
 20
327.483554871387
 30
0.0
 11
115.4468093551104
 21
327.483554871387
 31
0.0
  0
LINE
  5
196
102
{ACAD_REACTORS
330
275
330
276
102
}
330
71
100
AcDbEntity
  8
0
  6
Continuous
 62
     2
100
AcDbLine
 10
113.0135122426911
 20
330.537364395198
 30
0.0
 11
111.8207195405235
 21
330.537364395198
 31
0.0
  0
LINE
  5
197
102
{ACAD_REACTORS
330
275
330
276
102
}
330
71
100
AcDbEntity
  8
0
  6
Continuous
 62
     2
100
AcDbLine
 10
111.8207195405235
 20
330.537364395198
 30
0.0
 11
111.8207195405235
 21
327.483554871387
 31
0.0
  0
LINE
  5
198
102
{ACAD_REACTORS
330
273
330
274
102
}
330
71
100
AcDbEntity
  8
0
  6
Continuous
 62
     2
100
AcDbLine
 10
119.5024554733637
 20
333.8965548713725
 30
0.0
 11
119.5024554733637
 21
332.5877793611672
 31
0.0
  0
LINE
  5
199
102
{ACAD_REACTORS
330
273
330
274
102
}
330
71
100
AcDbEntity
  8
0
  6
Continuous
 62
     2
100
AcDbLine
 10
118.2619510631097
 20
333.8965548713725
 30
0.0
 11
117.0691583609432
 21
333.8965548713725
 31
0.0
  0
LINE
  5
19A
102
{ACAD_REACTORS
330
273
330
274
102
}
330
71
100
AcDbEntity
  8
0
  6
Continuous
 62
     2
100
AcDbLine
 10
117.0691583609432
 20
333.8965548713725
 30
0.0
 11
117.0691583609432
 21
330.8427453475613
 31
0.0
  0
LINE
  5
19B
102
{ACAD_REACTORS
330
273
330
274
102
}
330
71
100
AcDbEntity
  8
0
  6
Continuous
 62
     2
100
AcDbLine
 10
118.2619510631097
 20
330.8427453475613
 30
0.0
 11
118.2619510631097
 21
332.151520857766
 31
0.0
  0
LINE
  5
19C
102
{ACAD_REACTORS
330
271
330
272
102
}
330
71
100
AcDbEntity
  8
0
  6
Continuous
 62
     2
100
AcDbLine
 10
117.5938362190117
 20
327.483554871387
 30
0.0
 11
117.5938362190117
 21
329.7520990890745
 31
0.0
  0
LINE
  5
19D
102
{ACAD_REACTORS
330
271
330
272
102
}
330
71
100
AcDbEntity
  8
0
  6
Continuous
 62
     2
100
AcDbLine
 10
117.5938362190117
 20
329.7520990890745
 30
0.0
 11
118.4049352564842
 21
329.7520990890745
 31
0.0
  0
LINE
  5
19E
102
{ACAD_REACTORS
330
271
330
272
102
}
330
71
100
AcDbEntity
  8
0
  6
Continuous
 62
     2
100
AcDbLine
 10
118.4049352564842
 20
329.7520990890745
 30
0.0
 11
118.4049352564842
 21
330.537364395198
 31
0.0
  0
LINE
  5
19F
102
{ACAD_REACTORS
330
271
330
272
102
}
330
71
100
AcDbEntity
  8
0
  6
Continuous
 62
     2
100
AcDbLine
 10
118.4049352564842
 20
330.537364395198
 30
0.0
 11
115.5899444793706
 21
330.537364395198
 31
0.0
  0
LINE
  5
1A0
102
{ACAD_REACTORS
330
271
330
272
102
}
330
71
100
AcDbEntity
  8
0
  6
Continuous
 62
     2
100
AcDbLine
 10
115.5899444793706
 20
329.7520990890745
 30
0.0
 11
116.4010435168452
 21
329.7520990890745
 31
0.0
  0
LINE
  5
1A1
102
{ACAD_REACTORS
330
26F
330
270
102
}
330
71
100
AcDbEntity
  8
0
  6
Continuous
 62
     2
100
AcDbLine
 10
119.1994410822816
 20
328.0245154156048
 30
0.0
 11
120.3318826589554
 21
328.0245154156048
 31
0.0
  0
LINE
  5
1A2
102
{ACAD_REACTORS
330
26F
330
270
102
}
330
71
100
AcDbEntity
  8
0
  6
Continuous
 62
     2
100
AcDbLine
 10
121.7838671226851
 20
327.483554871387
 30
0.0
 11
120.5433627124312
 21
327.483554871387
 31
0.0
  0
LINE
  5
1A3
102
{ACAD_REACTORS
330
26F
330
270
102
}
330
71
100
AcDbEntity
  8
0
  6
Continuous
 62
     2
100
AcDbLine
 10
119.1454096654921
 20
330.537364395198
 30
0.0
 11
117.7474566185528
 21
327.483554871387
 31
0.0
  0
LINE
  5
1A4
102
{ACAD_REACTORS
330
26F
330
270
102
}
330
71
100
AcDbEntity
  8
0
  6
Continuous
 62
     2
100
AcDbLine
 10
118.9879610288058
 20
327.483554871387
 30
0.0
 11
119.1994410822816
 21
328.0245154156048
 31
0.0
  0
LINE
  5
1A5
102
{ACAD_REACTORS
330
26F
330
270
102
}
330
71
100
AcDbEntity
  8
0
  6
Continuous
 62
     2
100
AcDbLine
 10
119.4654966334266
 20
328.7050786809115
 30
0.0
 11
119.765661870619
 21
329.4728936468981
 31
0.0
  0
LINE
  5
1A6
102
{ACAD_REACTORS
330
26D
330
26E
102
}
330
71
100
AcDbEntity
  8
0
  6
Continuous
 62
     2
100
AcDbLine
 10
120.9338067159642
 20
330.8427453475613
 30
0.0
 11
120.9338067159642
 21
333.8965548713725
 31
0.0
  0
LINE
  5
1A7
102
{ACAD_REACTORS
330
26D
330
26E
102
}
330
71
100
AcDbEntity
  8
0
  6
Continuous
 62
     2
100
AcDbLine
 10
122.1743111262171
 20
333.8965548713725
 30
0.0
 11
122.1743111262171
 21
330.8427453475613
 31
0.0
  0
LINE
  5
1A8
102
{ACAD_REACTORS
330
26D
330
26E
102
}
330
71
100
AcDbEntity
  8
0
  6
Continuous
 62
     2
100
AcDbLine
 10
120.9338067159642
 20
333.8965548713725
 30
0.0
 11
122.1743111262171
 21
333.8965548713725
 31
0.0
  0
LINE
  5
1A9
102
{ACAD_REACTORS
330
26B
330
26C
102
}
330
71
100
AcDbEntity
  8
0
  6
Continuous
 62
     2
100
AcDbLine
 10
124.3929055522479
 20
331.6304771328549
 30
0.0
 11
125.0894964903134
 21
330.8427453475613
 31
0.0
  0
LINE
  5
1AA
102
{ACAD_REACTORS
330
26B
330
26C
102
}
330
71
100
AcDbEntity
  8
0
  6
Continuous
 62
     2
100
AcDbLine
 10
125.0894964903134
 20
330.8427453475613
 30
0.0
 11
126.4922207080617
 21
330.8427453475613
 31
0.0
  0
LINE
  5
1AB
102
{ACAD_REACTORS
330
26B
330
26C
102
}
330
71
100
AcDbEntity
  8
0
  6
Continuous
 62
     2
100
AcDbLine
 10
125.0942676611214
 20
332.4236043413363
 30
0.0
 11
126.4922207080617
 21
330.8427453475613
 31
0.0
  0
LINE
  5
1AC
102
{ACAD_REACTORS
330
26B
330
26C
102
}
330
71
100
AcDbEntity
  8
0
  6
Continuous
 62
     2
100
AcDbLine
 10
125.0942676611214
 20
332.4236043413363
 30
0.0
 11
126.3967972918879
 21
333.8965548713725
 31
0.0
  0
LINE
  5
1AD
102
{ACAD_REACTORS
330
26B
330
26C
102
}
330
71
100
AcDbEntity
  8
0
  6
Continuous
 62
     2
100
AcDbLine
 10
124.3929055522479
 20
333.2167315498169
 30
0.0
 11
124.9940730741407
 21
333.8965548713725
 31
0.0
  0
LINE
  5
1AE
102
{ACAD_REACTORS
330
26B
330
26C
102
}
330
71
100
AcDbEntity
  8
0
  6
Continuous
 62
     2
100
AcDbLine
 10
123.7917380303561
 20
333.8965548713725
 30
0.0
 11
124.3929055522479
 21
333.2167315498169
 31
0.0
  0
LINE
  5
1AF
102
{ACAD_REACTORS
330
26B
330
26C
102
}
330
71
100
AcDbEntity
  8
0
  6
Continuous
 62
     2
100
AcDbLine
 10
123.7917380303561
 20
333.8965548713725
 30
0.0
 11
122.3890138126068
 21
333.8965548713725
 31
0.0
  0
LINE
  5
1B0
102
{ACAD_REACTORS
330
261
330
262
102
}
330
71
100
AcDbEntity
  8
0
  6
Continuous
 62
     2
100
AcDbLine
 10
124.4883289684206
 20
327.483554871387
 30
0.0
 11
125.6811216705883
 21
327.483554871387
 31
0.0
  0
LINE
  5
1B1
102
{ACAD_REACTORS
330
261
330
262
102
}
330
71
100
AcDbEntity
  8
0
  6
Continuous
 62
     2
100
AcDbLine
 10
125.6811216705883
 20
327.483554871387
 30
0.0
 11
125.6811216705883
 21
329.7520990890745
 31
0.0
  0
LINE
  5
1B2
102
{ACAD_REACTORS
330
261
330
262
102
}
330
71
100
AcDbEntity
  8
0
  6
Continuous
 62
     2
100
AcDbLine
 10
125.6811216705883
 20
329.7520990890745
 30
0.0
 11
126.4922207080617
 21
329.7520990890745
 31
0.0
  0
LINE
  5
1B3
102
{ACAD_REACTORS
330
261
330
262
102
}
330
71
100
AcDbEntity
  8
0
  6
Continuous
 62
     2
100
AcDbLine
 10
126.4922207080617
 20
329.7520990890745
 30
0.0
 11
126.4922207080617
 21
330.537364395198
 31
0.0
  0
LINE
  5
1B4
102
{ACAD_REACTORS
330
261
330
262
102
}
330
71
100
AcDbEntity
  8
0
  6
Continuous
 62
     2
100
AcDbLine
 10
123.107275189433
 20
330.5373643951975
 30
0.0
 11
126.4922207080617
 21
330.537364395198
 31
0.0
  0
LINE
  5
1B5
102
{ACAD_REACTORS
330
261
330
262
102
}
330
71
100
AcDbEntity
  8
0
  6
Continuous
 62
     2
100
AcDbLine
 10
124.4883289684206
 20
329.7520990890745
 30
0.0
 11
124.4883289684206
 21
327.483554871387
 31
0.0
  0
LINE
  5
1B6
102
{ACAD_REACTORS
330
263
330
264
102
}
330
71
100
AcDbEntity
  8
0
  6
Continuous
 62
     2
100
AcDbLine
 10
101.8588425329414
 20
329.4624350209515
 30
0.0
 11
101.8588425329414
 21
330.0442864276465
 31
0.0
  0
LINE
  5
1B7
102
{ACAD_REACTORS
330
263
330
264
102
}
330
71
100
AcDbEntity
  8
0
  6
Continuous
 62
     2
100
AcDbLine
 10
101.8588425329414
 20
332.2625696275828
 30
0.0
 11
101.8588425329414
 21
332.8681049160896
 31
0.0
  0
LINE
  5
1B8
330
71
100
AcDbEntity
  8
1
  6
Continuous
 62
     6
100
AcDbLine
 10
80.38902111754464
 20
320.1900548713707
 30
0.0
 11
94.34421659079462
 21
320.1900548713705
 31
0.0
  0
LINE
  5
1B9
330
71
100
AcDbEntity
  8
1
  6
Continuous
 62
     6
100
AcDbLine
 10
30.38902111754442
 20
320.1900548713707
 30
0.0
 11
25.34421659079465
 21
320.1900548713707
 31
0.0
  0
LINE
  5
1BA
330
71
100
AcDbEntity
  8
1
  6
Continuous
 62
     6
100
AcDbLine
 10
180.3890211175446
 20
320.1900548713707
 30
0.0
 11
223.8890211175446
 21
320.1900548713707
 31
0.0
  0
LINE
  5
1BB
330
71
100
AcDbEntity
  8
1
  6
Continuous
 62
     6
100
AcDbLine
 10
130.3890211175446
 20
320.1900548713707
 30
0.0
 11
112.5442165907946
 21
320.1900548713707
 31
0.0
  0
LINE
  5
1BC
330
71
100
AcDbEntity
  8
1
  6
Continuous
 62
     2
100
AcDbLine
 10
223.8890211175446
 20
320.1900548713707
 30
0.0
 11
228.8890211175436
 21
320.1900548713707
 31
0.0
  0
LINE
  5
1BD
330
71
100
AcDbEntity
  8
1
  6
Continuous
 62
     2
100
AcDbLine
 10
223.8890211175446
 20
320.1900548713707
 30
0.0
 11
223.8890211175446
 21
315.1900548713705
 31
0.0
  0
LINE
  5
1BE
330
71
100
AcDbEntity
  8
1
  6
Continuous
 62
     6
100
AcDbLine
 10
94.34421659079462
 20
337.1900548713707
 30
0.0
 11
130.7442165907945
 21
337.1900548713707
 31
0.0
  0
LINE
  5
1BF
330
71
100
AcDbEntity
  8
1
  6
Continuous
 62
     2
100
AcDbLine
 10
228.8890211175436
 20
315.1900548713705
 30
0.0
 11
228.8890211175436
 21
320.1900548713707
 31
0.0
  0
LINE
  5
1C0
330
71
100
AcDbEntity
  8
1
  6
Continuous
 62
     2
100
AcDbLine
 10
228.8890211175436
 20
315.1900548713705
 30
0.0
 11
223.8890211175446
 21
315.1900548713705
 31
0.0
  0
LINE
  5
1C1
330
71
100
AcDbEntity
  8
1
  6
Continuous
 62
     2
100
AcDbLine
 10
223.8890211175446
 20
315.1900548713705
 30
0.0
 11
180.3890211175446
 21
315.1900548713705
 31
0.0
  0
LINE
  5
1C2
330
71
100
AcDbEntity
  8
1
  6
Continuous
 62
     6
100
AcDbLine
 10
223.8890211175463
 20
337.1900548713707
 30
0.0
 11
223.8890211175455
 21
370.1900548713708
 31
0.0
  0
LINE
  5
1C3
330
71
100
AcDbEntity
  8
1
  6
Continuous
 62
     2
100
AcDbLine
 10
228.8890211175436
 20
525.1900548713706
 30
0.0
 11
80.38902111754464
 21
525.1900548713706
 31
0.0
  0
LINE
  5
1C4
330
71
100
AcDbEntity
  8
1
  6
Continuous
 62
     6
100
AcDbLine
 10
223.8890211175436
 20
505.1900548713707
 30
0.0
 11
-63.11097888245445
 21
505.1900548713707
 31
0.0
  0
LINE
  5
1C5
330
71
100
AcDbEntity
  8
1
  6
Continuous
 62
     2
100
AcDbLine
 10
223.8890211175455
 20
370.1900548713708
 30
0.0
 11
228.8890211175436
 21
370.1900548713708
 31
0.0
  0
LINE
  5
1C6
330
71
100
AcDbEntity
  8
1
  6
Continuous
 62
     6
100
AcDbLine
 10
223.8890211175455
 20
370.1900548713708
 30
0.0
 11
223.889021117545
 21
420.1900548713705
 31
0.0
  0
LINE
  5
1C7
330
71
100
AcDbEntity
  8
1
  6
Continuous
 62
     2
100
AcDbLine
 10
228.8890211175436
 20
370.1900548713708
 30
0.0
 11
228.8890211175436
 21
420.1900548713705
 31
0.0
  0
LINE
  5
1C8
330
71
100
AcDbEntity
  8
1
  6
Continuous
 62
     2
100
AcDbLine
 10
223.889021117545
 20
420.1900548713705
 30
0.0
 11
228.8890211175436
 21
420.1900548713705
 31
0.0
  0
LINE
  5
1C9
330
71
100
AcDbEntity
  8
1
  6
Continuous
 62
     6
100
AcDbLine
 10
223.889021117545
 20
420.1900548713705
 30
0.0
 11
223.8890211175438
 21
470.1900548713707
 31
0.0
  0
LINE
  5
1CA
330
71
100
AcDbEntity
  8
1
  6
Continuous
 62
     2
100
AcDbLine
 10
228.8890211175436
 20
420.1900548713705
 30
0.0
 11
228.8890211175436
 21
470.1900548713707
 31
0.0
  0
LINE
  5
1CB
330
71
100
AcDbEntity
  8
1
  6
Continuous
 62
     2
100
AcDbLine
 10
223.8890211175438
 20
470.1900548713707
 30
0.0
 11
228.8890211175436
 21
470.1900548713707
 31
0.0
  0
LINE
  5
1CC
330
71
100
AcDbEntity
  8
1
  6
Continuous
 62
     6
100
AcDbLine
 10
223.8890211175438
 20
470.1900548713707
 30
0.0
 11
223.8890211175436
 21
505.1900548713707
 31
0.0
  0
LINE
  5
1CD
330
71
100
AcDbEntity
  8
1
  6
Continuous
 62
     2
100
AcDbLine
 10
228.8890211175436
 20
470.1900548713707
 30
0.0
 11
228.8890211175436
 21
525.1900548713706
 31
0.0
  0
LINE
  5
1CE
330
71
100
AcDbEntity
  8
1
  6
Continuous
 62
     2
100
AcDbLine
 10
228.8890211175436
 20
320.1900548713707
 30
0.0
 11
228.8890211175436
 21
370.1900548713708
 31
0.0
  0
LINE
  5
1CF
330
71
100
AcDbEntity
  8
1
  6
Continuous
 62
     2
100
AcDbLine
 10
80.38902111754464
 20
525.1900548713706
 30
0.0
 11
-68.11097888245445
 21
525.1900548713706
 31
0.0
  0
LINE
  5
1D0
330
71
100
AcDbEntity
  8
1
  6
Continuous
 62
     2
100
AcDbLine
 10
80.38902111754464
 20
525.1900548713706
 30
0.0
 11
80.38902111754464
 21
515.9813630266693
 31
0.0
  0
LINE
  5
1D1
330
71
100
AcDbEntity
  8
1
  6
Continuous
 62
     2
100
AcDbLine
 10
-68.11097888245445
 20
315.1900548713705
 30
0.0
 11
-63.11097888245348
 21
315.1900548713705
 31
0.0
  0
LINE
  5
1D2
330
71
100
AcDbEntity
  8
1
  6
Continuous
 62
     2
100
AcDbLine
 10
-68.11097888245445
 20
525.1900548713706
 30
0.0
 11
-68.11097888245445
 21
470.1900548713707
 31
0.0
  0
LINE
  5
1D3
330
71
100
AcDbEntity
  8
1
  6
Continuous
 62
     6
100
AcDbLine
 10
-63.11097888245445
 20
505.1900548713707
 30
0.0
 11
-63.11097888245439
 21
470.1900548713707
 31
0.0
  0
LINE
  5
1D4
330
71
100
AcDbEntity
  8
1
  6
Continuous
 62
     2
100
AcDbLine
 10
-68.11097888245445
 20
470.1900548713707
 30
0.0
 11
-63.11097888245439
 21
470.1900548713707
 31
0.0
  0
LINE
  5
1D5
330
71
100
AcDbEntity
  8
1
  6
Continuous
 62
     2
100
AcDbLine
 10
-68.11097888245445
 20
470.1900548713707
 30
0.0
 11
-68.11097888245445
 21
420.1900548713705
 31
0.0
  0
LINE
  5
1D6
330
71
100
AcDbEntity
  8
1
  6
Continuous
 62
     6
100
AcDbLine
 10
-63.11097888245439
 20
470.1900548713707
 30
0.0
 11
-63.11097888245388
 21
420.1900548713705
 31
0.0
  0
LINE
  5
1D7
330
71
100
AcDbEntity
  8
1
  6
Continuous
 62
     2
100
AcDbLine
 10
-68.11097888245445
 20
420.1900548713705
 30
0.0
 11
-63.11097888245388
 21
420.1900548713705
 31
0.0
  0
LINE
  5
1D8
330
71
100
AcDbEntity
  8
1
  6
Continuous
 62
     2
100
AcDbLine
 10
-68.11097888245445
 20
420.1900548713705
 30
0.0
 11
-68.11097888245445
 21
370.1900548713708
 31
0.0
  0
LINE
  5
1D9
330
71
100
AcDbEntity
  8
1
  6
Continuous
 62
     6
100
AcDbLine
 10
-63.11097888245388
 20
420.1900548713705
 30
0.0
 11
-63.11097888245365
 21
370.1900548713708
 31
0.0
  0
LINE
  5
1DA
330
71
100
AcDbEntity
  8
1
  6
Continuous
 62
     2
100
AcDbLine
 10
-68.11097888245445
 20
370.1900548713708
 30
0.0
 11
-63.11097888245365
 21
370.1900548713708
 31
0.0
  0
LINE
  5
1DB
330
71
100
AcDbEntity
  8
1
  6
Continuous
 62
     2
100
AcDbLine
 10
-68.11097888245445
 20
370.1900548713708
 30
0.0
 11
-68.11097888245445
 21
320.1900548713707
 31
0.0
  0
LINE
  5
1DC
330
71
100
AcDbEntity
  8
1
  6
Continuous
 62
     6
100
AcDbLine
 10
-63.11097888245365
 20
370.1900548713708
 30
0.0
 11
-63.11097888245348
 21
320.1900548713707
 31
0.0
  0
LINE
  5
1DD
330
71
100
AcDbEntity
  8
1
  6
Continuous
 62
     2
100
AcDbLine
 10
-19.61097888245536
 20
315.1900548713705
 30
0.0
 11
-19.61097888245536
 21
320.1900548713707
 31
0.0
  0
LINE
  5
1DE
330
71
100
AcDbEntity
  8
1
  6
Continuous
 62
     2
100
AcDbLine
 10
-19.61097888245536
 20
315.1900548713705
 30
0.0
 11
30.38902111754442
 21
315.1900548713705
 31
0.0
  0
LINE
  5
1DF
330
71
100
AcDbEntity
  8
1
  6
Continuous
 62
     2
100
AcDbLine
 10
30.38902111754442
 20
315.1900548713705
 30
0.0
 11
30.38902111754442
 21
320.1900548713707
 31
0.0
  0
LINE
  5
1E0
330
71
100
AcDbEntity
  8
1
  6
Continuous
 62
     2
100
AcDbLine
 10
30.38902111754442
 20
315.1900548713705
 30
0.0
 11
80.38902111754464
 21
315.1900548713705
 31
0.0
  0
LINE
  5
1E1
330
71
100
AcDbEntity
  8
1
  6
Continuous
 62
     2
100
AcDbLine
 10
80.38902111754464
 20
315.1900548713705
 30
0.0
 11
80.38902111754464
 21
320.1900548713707
 31
0.0
  0
LINE
  5
1E2
330
71
100
AcDbEntity
  8
1
  6
Continuous
 62
     2
100
AcDbLine
 10
80.38902111754464
 20
315.1900548713705
 30
0.0
 11
130.3890211175446
 21
315.1900548713705
 31
0.0
  0
LINE
  5
1E3
330
71
100
AcDbEntity
  8
1
  6
Continuous
 62
     2
100
AcDbLine
 10
130.3890211175446
 20
315.1900548713705
 30
0.0
 11
130.3890211175446
 21
320.1900548713707
 31
0.0
  0
LINE
  5
1E4
330
71
100
AcDbEntity
  8
1
  6
Continuous
 62
     2
100
AcDbLine
 10
180.3890211175446
 20
315.1900548713705
 30
0.0
 11
180.3890211175446
 21
320.1900548713707
 31
0.0
  0
LINE
  5
1E5
330
71
100
AcDbEntity
  8
1
  6
Continuous
 62
     2
100
AcDbLine
 10
180.3890211175446
 20
315.1900548713705
 30
0.0
 11
130.3890211175446
 21
315.1900548713705
 31
0.0
  0
LINE
  5
1E6
330
71
100
AcDbEntity
  8
1
  6
Continuous
 62
     2
100
AcDbLine
 10
-63.11097888245348
 20
320.1900548713707
 30
0.0
 11
-63.11097888245348
 21
315.1900548713705
 31
0.0
  0
LINE
  5
1E7
330
71
100
AcDbEntity
  8
1
  6
Continuous
 62
     2
100
AcDbLine
 10
-63.11097888245348
 20
315.1900548713705
 30
0.0
 11
-19.61097888245536
 21
315.1900548713705
 31
0.0
  0
LINE
  5
1E8
330
71
100
AcDbEntity
  8
1
  6
Continuous
 62
     2
100
AcDbLine
 10
-63.11097888245348
 20
320.1900548713707
 30
0.0
 11
-68.11097888245445
 21
320.1900548713707
 31
0.0
  0
LINE
  5
1E9
330
71
100
AcDbEntity
  8
1
  6
Continuous
 62
     2
100
AcDbLine
 10
-68.11097888245445
 20
320.1900548713707
 30
0.0
 11
-68.11097888245445
 21
315.1900548713705
 31
0.0
  0
LINE
  5
1EA
330
71
100
AcDbEntity
  8
1
  6
Continuous
 62
     6
100
AcDbLine
 10
223.8890211175446
 20
320.1900548713707
 30
0.0
 11
223.8890211175459
 21
328.6900548713707
 31
0.0
  0
LINE
  5
1EB
330
71
100
AcDbEntity
  8
1
  6
Continuous
 62
     6
100
AcDbLine
 10
130.7442165907945
 20
320.1900548713705
 30
0.0
 11
180.3890211175446
 21
320.1900548713707
 31
0.0
  0
LINE
  5
1EC
330
71
100
AcDbEntity
  8
1
  6
Continuous
 62
     6
100
AcDbLine
 10
-21.9109788824556
 20
320.1900548713705
 30
0.0
 11
-19.61097888245536
 21
320.1900548713707
 31
0.0
  0
LINE
  5
1ED
330
71
100
AcDbEntity
  8
1
  6
Continuous
 62
     6
100
AcDbLine
 10
80.38902111754464
 20
320.1900548713707
 30
0.0
 11
30.38902111754442
 21
320.1900548713707
 31
0.0
  0
LINE
  5
1EE
330
71
100
AcDbEntity
  8
1
  6
Continuous
 62
     7
100
AcDbLine
 10
94.34421659079462
 20
337.1900548713707
 30
0.0
 11
94.34421659079462
 21
324.4400548713705
 31
0.0
  0
LINE
  5
1EF
330
71
100
AcDbEntity
  8
1
  6
Continuous
 62
     7
100
AcDbLine
 10
130.7442165907945
 20
337.1900548713707
 30
0.0
 11
130.7442165907945
 21
324.4400548713707
 31
0.0
  0
LINE
  5
1F0
330
71
100
AcDbEntity
  8
1
  6
Continuous
 62
     6
100
AcDbLine
 10
-21.9109788824556
 20
320.1900548713705
 30
0.0
 11
-28.11097888245359
 21
320.1900548713707
 31
0.0
  0
LINE
  5
1F1
330
71
100
AcDbEntity
  8
1
  6
Continuous
 62
     6
100
AcDbLine
 10
130.7442165907945
 20
320.1900548713705
 30
0.0
 11
130.3890211175446
 21
320.1900548713707
 31
0.0
  0
LINE
  5
1F2
330
71
100
AcDbEntity
  8
1
  6
Continuous
 62
     6
100
AcDbLine
 10
223.8890211175463
 20
337.1900548713707
 30
0.0
 11
223.8890211175459
 21
328.6900548713707
 31
0.0
  0
LINE
  5
1F3
330
71
100
AcDbEntity
  8
1
  6
Continuous
 62
     6
100
AcDbLine
 10
-28.11097888245359
 20
320.1900548713707
 30
0.0
 11
-63.11097888245348
 21
320.1900548713707
 31
0.0
  0
LINE
  5
1F4
330
71
100
AcDbEntity
  8
1
  6
Continuous
 62
     2
100
AcDbLine
 10
98.58087147735722
 20
342.5650548713705
 30
0.0
 11
103.5808714773572
 21
343.8150548713705
 31
0.0
  0
LINE
  5
1F5
330
71
100
AcDbEntity
  8
1
  6
Continuous
 62
     2
100
AcDbLine
 10
98.58087147735722
 20
340.0650548713705
 30
0.0
 11
98.58087147735722
 21
342.5650548713705
 31
0.0
  0
LINE
  5
1F6
330
71
100
AcDbEntity
  8
1
  6
Continuous
 62
     2
100
AcDbLine
 10
103.5808714773572
 20
338.8150548713705
 30
0.0
 11
98.58087147735722
 21
340.0650548713705
 31
0.0
  0
LINE
  5
1F7
330
71
100
AcDbEntity
  8
1
  6
Continuous
 62
     2
100
AcDbLine
 10
103.5808714773572
 20
343.8150548713705
 30
0.0
 11
103.5808714773572
 21
338.8150548713705
 31
0.0
  0
LINE
  5
1F8
330
71
100
AcDbEntity
  8
1
  6
Continuous
 62
     7
100
AcDbLine
 10
94.34421659079462
 20
324.4400548713705
 30
0.0
 11
112.5442165907946
 21
324.4400548713707
 31
0.0
  0
LINE
  5
1F9
330
71
100
AcDbEntity
  8
1
  6
Continuous
 62
     7
100
AcDbLine
 10
94.34421659079462
 20
324.4400548713705
 30
0.0
 11
94.34421659079462
 21
320.1900548713705
 31
0.0
  0
LINE
  5
1FA
330
71
100
AcDbEntity
  8
1
  6
Continuous
 62
     7
100
AcDbLine
 10
130.7442165907945
 20
324.4400548713707
 30
0.0
 11
130.7442165907945
 21
320.1900548713705
 31
0.0
  0
LINE
  5
1FB
330
71
100
AcDbEntity
  8
1
  6
Continuous
 62
     7
100
AcDbLine
 10
112.5442165907946
 20
324.4400548713707
 30
0.0
 11
112.5442165907946
 21
320.1900548713707
 31
0.0
  0
LINE
  5
1FC
330
71
100
AcDbEntity
  8
1
  6
Continuous
 62
     6
100
AcDbLine
 10
112.5442165907946
 20
320.1900548713707
 30
0.0
 11
94.34421659079462
 21
320.1900548713705
 31
0.0
  0
LINE
  5
1FD
330
71
100
AcDbEntity
  8
1
  6
Continuous
 62
     7
100
AcDbLine
 10
112.5442165907946
 20
324.4400548713707
 30
0.0
 11
130.7442165907945
 21
324.4400548713707
 31
0.0
  0
LINE
  5
1FE
330
71
100
AcDbEntity
  8
1
  6
Continuous
 62
     6
100
AcDbLine
 10
94.34421659079462
 20
345.6900548713707
 30
0.0
 11
223.8890211175463
 21
345.6900548713707
 31
0.0
  0
ARC
  5
1FF
102
{ACAD_REACTORS
330
267
330
268
102
}
330
71
100
AcDbEntity
  8
0
  6
Continuous
 62
     2
100
AcDbCircle
 10
109.7358645897546
 20
329.0104596332923
 30
0.0
 40
0.7717997786797889
100
AcDbArc
 50
321.8795802028312
 51
38.12041979714564
  0
ARC
  5
200
102
{ACAD_REACTORS
330
267
330
268
102
}
330
71
100
AcDbEntity
  8
0
  6
Continuous
 62
     2
100
AcDbCircle
 10
109.935604626101
 20
328.8537284551723
 30
0.0
 40
0.5179085730138231
100
AcDbArc
 50
218.1204197972055
 51
321.8795802027886
  0
ARC
  5
201
102
{ACAD_REACTORS
330
267
330
268
102
}
330
71
100
AcDbEntity
  8
0
  6
Continuous
 62
     2
100
AcDbCircle
 10
110.1353446624471
 20
329.0104596332923
 30
0.0
 40
0.7717997786793755
100
AcDbArc
 50
141.8795802028446
 51
218.1204197971787
  0
ARC
  5
202
102
{ACAD_REACTORS
330
267
330
268
102
}
330
71
100
AcDbEntity
  8
0
  6
Continuous
 62
     2
100
AcDbCircle
 10
109.935604626101
 20
329.1671908114128
 30
0.0
 40
0.5179085730132297
100
AcDbArc
 50
38.12041979713714
 51
141.8795802028687
  0
ARC
  5
203
102
{ACAD_REACTORS
330
25F
330
260
102
}
330
71
100
AcDbEntity
  8
0
  6
Continuous
 62
     2
100
AcDbCircle
 10
106.8735904905371
 20
327.5999932678841
 30
0.0
 40
2.227384008973517
100
AcDbArc
 50
58.06909105004049
 51
71.55192388186583
  0
ARC
  5
204
102
{ACAD_REACTORS
330
25F
330
260
102
}
330
71
100
AcDbEntity
  8
0
  6
Continuous
 62
     2
100
AcDbCircle
 10
107.1353181914959
 20
329.2155310626313
 30
0.0
 40
0.511580060194863
100
AcDbArc
 50
113.3722778882033
 51
151.4785267423044
  0
ARC
  5
205
102
{ACAD_REACTORS
330
25F
330
260
102
}
330
71
100
AcDbEntity
  8
0
  6
Continuous
 62
     2
100
AcDbCircle
 10
107.5126754495762
 20
329.0104596332923
 30
0.0
 40
0.941059735333242
100
AcDbArc
 50
151.4785267422665
 51
208.5214732577122
  0
ARC
  5
206
102
{ACAD_REACTORS
330
25F
330
260
102
}
330
71
100
AcDbEntity
  8
0
  6
Continuous
 62
     2
100
AcDbCircle
 10
106.7157176154442
 20
332.3231405785487
 30
0.0
 40
4.852596863498223
100
AcDbArc
 50
275.1581447696248
 51
285.9799912583526
  0
ARC
  5
207
102
{ACAD_REACTORS
330
25F
330
260
102
}
330
71
100
AcDbEntity
  8
0
  6
Continuous
 62
     2
100
AcDbCircle
 10
107.0045737101801
 20
329.1232499953271
 30
0.0
 40
1.639695123939408
100
AcDbArc
 50
195.0618917770904
 51
275.1581447696398
  0
ARC
  5
208
102
{ACAD_REACTORS
330
25F
330
260
102
}
330
71
100
AcDbEntity
  8
0
  6
Continuous
 62
     2
100
AcDbCircle
 10
106.5854458667173
 20
329.0104596332923
 30
0.0
 40
1.205656168390913
100
AcDbArc
 50
164.9381082228845
 51
195.0618917770973
  0
ARC
  5
209
102
{ACAD_REACTORS
330
25F
330
260
102
}
330
71
100
AcDbEntity
  8
0
  6
Continuous
 62
     2
100
AcDbCircle
 10
107.0045737101801
 20
328.8976692712573
 30
0.0
 40
1.639695123940564
100
AcDbArc
 50
84.84185523036203
 51
164.9381082228885
  0
ARC
  5
20A
102
{ACAD_REACTORS
330
263
330
264
102
}
330
71
100
AcDbEntity
  8
0
  6
Continuous
 62
     2
100
AcDbCircle
 10
102.1745594560182
 20
330.0442864276465
 30
0.0
 40
0.3157169230765903
100
AcDbArc
 50
115.3740086783498
 51
180.0
  0
ARC
  5
20B
102
{ACAD_REACTORS
330
263
330
264
102
}
330
71
100
AcDbEntity
  8
0
  6
Continuous
 62
     2
100
AcDbCircle
 10
102.1745594560182
 20
332.2625696275828
 30
0.0
 40
0.3157169230768062
100
AcDbArc
 50
180.0
 51
244.6259913216458
  0
ARC
  5
20C
102
{ACAD_REACTORS
330
263
330
264
102
}
330
71
100
AcDbEntity
  8
0
  6
Continuous
 62
     2
100
AcDbCircle
 10
102.1801755913282
 20
331.1652699685204
 30
0.0
 40
2.018561131933266
100
AcDbArc
 50
269.8110329575862
 51
90.18896704241376
  0
ARC
  5
20D
102
{ACAD_REACTORS
330
263
330
264
102
}
330
71
100
AcDbEntity
  8
0
  6
Continuous
 62
     2
100
AcDbCircle
 10
102.1745594560182
 20
329.4624350209515
 30
0.0
 40
0.3157169230768062
100
AcDbArc
 50
180.0
 51
269.8110329574516
  0
ARC
  5
20E
102
{ACAD_REACTORS
330
261
330
262
102
}
330
71
100
AcDbEntity
  8
0
  6
Continuous
 62
     2
100
AcDbCircle
 10
123.2380196707488
 20
329.2155310626313
 30
0.0
 40
0.5115800601944096
100
AcDbArc
 50
109.3371432194838
 51
151.4785267424245
  0
ARC
  5
20F
102
{ACAD_REACTORS
330
261
330
262
102
}
330
71
100
AcDbEntity
  8
0
  6
Continuous
 62
     2
100
AcDbCircle
 10
123.2380196707488
 20
328.8053882039537
 30
0.0
 40
0.5115800601959548
100
AcDbArc
 50
208.5214732576762
 51
246.6277221118424
  0
ARC
  5
210
102
{ACAD_REACTORS
330
261
330
262
102
}
330
71
100
AcDbEntity
  8
0
  6
Continuous
 62
     2
100
AcDbCircle
 10
122.6881473459714
 20
329.0104596332923
 30
0.0
 40
1.205656168392944
100
AcDbArc
 50
164.9381082229104
 51
195.0618917770974
  0
ARC
  5
211
102
{ACAD_REACTORS
330
261
330
262
102
}
330
71
100
AcDbEntity
  8
0
  6
Continuous
 62
     2
100
AcDbCircle
 10
123.107275189433
 20
328.8976692712573
 30
0.0
 40
1.639695123940214
100
AcDbArc
 50
90.0
 51
164.9381082228966
  0
ARC
  5
212
102
{ACAD_REACTORS
330
265
330
266
102
}
330
71
100
AcDbEntity
  8
0
  6
Continuous
 62
     2
100
AcDbCircle
 10
113.6802800967293
 20
332.3696501094665
 30
0.0
 40
1.526904761905996
100
AcDbArc
 50
90.0
 51
270.0
  0
ARC
  5
213
102
{ACAD_REACTORS
330
269
330
26A
102
}
330
71
100
AcDbEntity
  8
0
  6
Continuous
 62
     2
100
AcDbCircle
 10
106.9375893515035
 20
332.8805852012613
 30
0.0
 40
0.3528638246712035
100
AcDbArc
 50
270.0
 51
90.0
  0
ARC
  5
214
102
{ACAD_REACTORS
330
263
330
264
102
}
330
71
100
AcDbEntity
  8
0
  6
Continuous
 62
     2
100
AcDbCircle
 10
99.59901076948651
 20
332.8682823927377
 30
0.0
 40
0.3157169230761383
100
AcDbArc
 50
90.0
 51
180.0
  0
ARC
  5
215
102
{ACAD_REACTORS
330
263
330
264
102
}
330
71
100
AcDbEntity
  8
0
  6
Continuous
 62
     2
100
AcDbCircle
 10
101.5974284780711
 20
331.153428027615
 30
0.0
 40
0.911897523557486
100
AcDbArc
 50
115.194410648532
 51
244.8055893514907
  0
ARC
  5
216
102
{ACAD_REACTORS
330
263
330
264
102
}
330
71
100
AcDbEntity
  8
0
  6
Continuous
 62
     2
100
AcDbCircle
 10
101.0748440304961
 20
330.0425982815522
 30
0.0
 40
0.3157169230766073
100
AcDbArc
 50
0.0
 51
64.80558935144916
  0
ARC
  5
217
102
{ACAD_REACTORS
330
263
330
264
102
}
330
71
100
AcDbEntity
  8
0
  6
Continuous
 62
     2
100
AcDbCircle
 10
99.00511609274002
 20
327.9077994867703
 30
0.0
 40
0.4242446153828041
100
AcDbArc
 50
180.0
 51
270.0
  0
ARC
  5
218
102
{ACAD_REACTORS
330
265
330
266
102
}
330
71
100
AcDbEntity
  8
0
  6
Continuous
 62
     2
100
AcDbCircle
 10
113.8965521068945
 20
332.526381287587
 30
0.0
 40
0.5179085730135855
100
AcDbArc
 50
38.12041979715421
 51
141.87958020284
  0
ARC
  5
219
102
{ACAD_REACTORS
330
265
330
266
102
}
330
71
100
AcDbEntity
  8
0
  6
Continuous
 62
     2
100
AcDbCircle
 10
114.0962921432408
 20
332.3696501094665
 30
0.0
 40
0.7717997786797889
100
AcDbArc
 50
141.8795802028311
 51
218.1204197971522
  0
ARC
  5
21A
102
{ACAD_REACTORS
330
267
330
268
102
}
330
71
100
AcDbEntity
  8
0
  6
Continuous
 62
     2
100
AcDbCircle
 10
109.935604626101
 20
329.5490346435955
 30
0.0
 40
2.065479772208541
100
AcDbArc
 50
242.4518518243402
 51
297.5481481756871
  0
ARC
  5
21B
102
{ACAD_REACTORS
330
267
330
268
102
}
330
71
100
AcDbEntity
  8
0
  6
Continuous
 62
     2
100
AcDbCircle
 10
109.935604626101
 20
328.4718846229895
 30
0.0
 40
2.065479772208499
100
AcDbArc
 50
62.45185182430493
 51
117.5481481756678
  0
ARC
  5
21C
102
{ACAD_REACTORS
330
267
330
268
102
}
330
71
100
AcDbEntity
  8
0
  6
Continuous
 62
     2
100
AcDbCircle
 10
109.6546647342677
 20
329.0104596332923
 30
0.0
 40
1.458034083651371
100
AcDbArc
 50
117.5481481756655
 51
242.4518518243397
  0
ARC
  5
21D
102
{ACAD_REACTORS
330
267
330
268
102
}
330
71
100
AcDbEntity
  8
0
  6
Continuous
 62
     2
100
AcDbCircle
 10
110.2165445179343
 20
329.0104596332923
 30
0.0
 40
1.458034083652135
100
AcDbArc
 50
297.5481481756989
 51
62.45185182429586
  0
ARC
  5
21E
102
{ACAD_REACTORS
330
265
330
266
102
}
330
71
100
AcDbEntity
  8
0
  6
Continuous
 62
     2
100
AcDbCircle
 10
113.8965521068945
 20
332.2129189313462
 30
0.0
 40
0.5179085730135184
100
AcDbArc
 50
218.12041979716
 51
321.8795802028458
  0
ARC
  5
21F
102
{ACAD_REACTORS
330
265
330
266
102
}
330
71
100
AcDbEntity
  8
0
  6
Continuous
 62
     2
100
AcDbCircle
 10
113.6968120705483
 20
332.3696501094665
 30
0.0
 40
0.7717997786796023
100
AcDbArc
 50
321.8795802028471
 51
38.12041979716953
  0
ARC
  5
220
102
{ACAD_REACTORS
330
263
330
264
102
}
330
71
100
AcDbEntity
  8
0
  6
Continuous
 62
     2
100
AcDbCircle
 10
104.4784281834568
 20
327.9077994867703
 30
0.0
 40
0.4242446153832589
100
AcDbArc
 50
270.0
 51
0.0
  0
ARC
  5
221
102
{ACAD_REACTORS
330
263
330
264
102
}
330
71
100
AcDbEntity
  8
0
  6
Continuous
 62
     2
100
AcDbCircle
 10
104.4784281834568
 20
333.4723102559705
 30
0.0
 40
0.4242446153838983
100
AcDbArc
 50
0.0
 51
90.0
  0
ARC
  5
222
102
{ACAD_REACTORS
330
263
330
264
102
}
330
71
100
AcDbEntity
  8
0
  6
Continuous
 62
     2
100
AcDbCircle
 10
99.00511609274002
 20
333.4723102559705
 30
0.0
 40
0.4242446153837705
100
AcDbArc
 50
90.0
 51
180.0
  0
ARC
  5
223
102
{ACAD_REACTORS
330
263
330
264
102
}
330
71
100
AcDbEntity
  8
0
  6
Continuous
 62
     2
100
AcDbCircle
 10
101.0748440304961
 20
328.5118273500206
 30
0.0
 40
0.3157169230767067
100
AcDbArc
 50
270.0
 51
0.0
  0
ARC
  5
224
102
{ACAD_REACTORS
330
263
330
264
102
}
330
71
100
AcDbEntity
  8
0
  6
Continuous
 62
     2
100
AcDbCircle
 10
101.0748440304961
 20
332.2642577736772
 30
0.0
 40
0.3157169230762292
100
AcDbArc
 50
295.1944106485332
 51
0.0
  0
ARC
  5
225
102
{ACAD_REACTORS
330
263
330
264
102
}
330
71
100
AcDbEntity
  8
0
  6
Continuous
 62
     2
100
AcDbCircle
 10
101.0748440304961
 20
332.8682823927377
 30
0.0
 40
0.3157169230766073
100
AcDbArc
 50
0.0
 51
90.0
  0
ARC
  5
226
102
{ACAD_REACTORS
330
263
330
264
102
}
330
71
100
AcDbEntity
  8
0
  6
Continuous
 62
     2
100
AcDbCircle
 10
99.59901076948651
 20
328.5118273500206
 30
0.0
 40
0.3157169230756836
100
AcDbArc
 50
180.0
 51
270.0
  0
ARC
  5
227
102
{ACAD_REACTORS
330
269
330
26A
102
}
330
71
100
AcDbEntity
  8
0
  6
Continuous
 62
     2
100
AcDbCircle
 10
107.3790618777419
 20
332.8411892300388
 30
0.0
 40
1.055365641333708
100
AcDbArc
 50
270.0
 51
90.0
  0
ARC
  5
228
102
{ACAD_REACTORS
330
261
330
262
102
}
330
71
100
AcDbEntity
  8
0
  6
Continuous
 62
     2
100
AcDbCircle
 10
123.107275189433
 20
329.1232499953271
 30
0.0
 40
1.639695123940421
100
AcDbArc
 50
195.0618917771015
 51
275.1581447696767
  0
ARC
  5
229
102
{ACAD_REACTORS
330
261
330
262
102
}
330
71
100
AcDbEntity
  8
0
  6
Continuous
 62
     2
100
AcDbCircle
 10
122.8184190946972
 20
332.3231405785487
 30
0.0
 40
4.852596863498824
100
AcDbArc
 50
275.1581447696362
 51
285.9799912583381
  0
ARC
  5
22A
102
{ACAD_REACTORS
330
261
330
262
102
}
330
71
100
AcDbEntity
  8
0
  6
Continuous
 62
     2
100
AcDbCircle
 10
122.97629196979
 20
330.4209259987003
 30
0.0
 40
2.227384008972665
100
AcDbArc
 50
288.4480761181342
 51
301.9309089499406
  0
ARC
  5
22B
102
{ACAD_REACTORS
330
261
330
262
102
}
330
71
100
AcDbEntity
  8
0
  6
Continuous
 62
     2
100
AcDbCircle
 10
123.3944597034519
 20
329.1673802226637
 30
0.0
 40
0.9059297849852278
100
AcDbArc
 50
246.6277221118168
 51
288.4480761180828
  0
ARC
  5
22C
102
{ACAD_REACTORS
330
261
330
262
102
}
330
71
100
AcDbEntity
  8
0
  6
Continuous
 62
     2
100
AcDbCircle
 10
123.6153769288302
 20
329.0104596332923
 30
0.0
 40
0.9410597353348789
100
AcDbArc
 50
151.478526742364
 51
208.5214732576695
  0
ARC
  5
22D
102
{ACAD_REACTORS
330
261
330
262
102
}
330
71
100
AcDbEntity
  8
0
  6
Continuous
 62
     2
100
AcDbCircle
 10
123.3846896688525
 20
328.7975760822484
 30
0.0
 40
0.9545230068260935
100
AcDbArc
 50
90.0
 51
109.3371432194301
  0
ARC
  5
22E
102
{ACAD_REACTORS
330
263
330
264
102
}
330
71
100
AcDbEntity
  8
0
  6
Continuous
 62
     2
100
AcDbCircle
 10
102.1745594560182
 20
332.8681049160896
 30
0.0
 40
0.3157169230759574
100
AcDbArc
 50
90.18896704254857
 51
180.0
  0
ARC
  5
22F
102
{ACAD_REACTORS
330
263
330
264
102
}
330
71
100
AcDbEntity
  8
0
  6
Continuous
 62
     2
100
AcDbCircle
 10
101.6485167579303
 20
331.153428027615
 30
0.0
 40
0.9118481501444908
100
AcDbArc
 50
295.3740086781765
 51
64.62599132180665
  0
ARC
  5
230
102
{ACAD_REACTORS
330
25F
330
260
102
}
330
71
100
AcDbEntity
  8
0
  6
Continuous
 62
     2
100
AcDbCircle
 10
106.8735904905371
 20
330.4209259987009
 30
0.0
 40
2.227384008972665
100
AcDbArc
 50
288.4480761181342
 51
301.9309089499595
  0
ARC
  5
231
102
{ACAD_REACTORS
330
25F
330
260
102
}
330
71
100
AcDbEntity
  8
0
  6
Continuous
 62
     2
100
AcDbCircle
 10
107.2917582241979
 20
329.1673802226637
 30
0.0
 40
0.9059297849848726
100
AcDbArc
 50
246.6277221118688
 51
288.448076118161
  0
ARC
  5
232
102
{ACAD_REACTORS
330
25F
330
260
102
}
330
71
100
AcDbEntity
  8
0
  6
Continuous
 62
     2
100
AcDbCircle
 10
107.1353181914959
 20
328.8053882039537
 30
0.0
 40
0.5115800601948034
100
AcDbArc
 50
208.5214732576956
 51
246.6277221118219
  0
ARC
  5
233
102
{ACAD_REACTORS
330
25F
330
260
102
}
330
71
100
AcDbEntity
  8
0
  6
Continuous
 62
     2
100
AcDbCircle
 10
107.2917582241979
 20
328.8535390439207
 30
0.0
 40
0.9059297849852195
100
AcDbArc
 50
71.55192388185034
 51
113.3722778881298
  0
ARC
  5
234
102
{ACAD_REACTORS
330
25F
330
260
102
}
330
71
100
AcDbEntity
  8
0
  6
Continuous
 62
     2
100
AcDbCircle
 10
106.7157176154442
 20
325.6977786880364
 30
0.0
 40
4.852596863497986
100
AcDbArc
 50
74.0200087416471
 51
84.84185523037502
  0
CIRCLE
  5
235
102
{ACAD_REACTORS
330
263
330
264
102
}
330
71
100
AcDbEntity
  8
0
  6
Continuous
 62
     2
100
AcDbCircle
 10
101.6247017432575
 20
331.153428027615
 30
0.0
 40
0.4709789327784932
  0
CIRCLE
  5
236
330
71
100
AcDbEntity
  8
1
  6
Continuous
 62
     2
100
AcDbCircle
 10
107.0808714773572
 20
341.3150548713705
 30
0.0
 40
1.249999999999901
  0
CIRCLE
  5
237
330
71
100
AcDbEntity
  8
1
  6
Continuous
 62
     2
100
AcDbCircle
 10
107.0808714773572
 20
341.3150548713705
 30
0.0
 40
2.5
  0
TEXT
  5
238
330
71
100
AcDbEntity
  8
1
 62
     7
100
AcDbText
 10
149.7177643128084
 20
338.4900548713706
 30
0.0
 40
2.5
  1
/
 41
0.9
  7
CONVERTER_11
100
AcDbText
  0
TEXT
  5
23A
330
71
100
AcDbEntity
  8
1
 62
     7
100
AcDbText
 10
151.8741288098504
 20
338.4900548713706
 30
0.0
 40
2.5
  1
02
 41
0.81
  7
CONVERTER_12
100
AcDbText
  0
TEXT
  5
23B
330
71
100
AcDbEntity
  8
1
 62
     3
100
AcDbText
 10
189.4706128358675
 20
338.4900548713706
 30
0.0
 40
2.5
  1
26.01.2018
 41
0.81
  7
CONVERTER_12
100
AcDbText
  0
MTEXT
  5
23C
330
71
100
AcDbEntity
  8
1
 62
     2
100
AcDbMText
 10
189.4706128358675
 20
344.6900548713705
 30
0.0
 40
1.8
 41
0.0
 71
     1
 72
     1
  1
date
  7
CONVERTER_11
 73
     1
 44
1.32052821128451
  0
MTEXT
  5
23D
330
71
100
AcDbEntity
  8
1
 62
     2
100
AcDbMText
 10
159.6442165907946
 20
336.1900548713705
 30
0.0
 40
1.8
 41
0.0
 71
     1
 72
     1
  1
document-type
  7
CONVERTER_11
 73
     1
 44
1.20048019207683
  0
TEXT
  5
23E
330
71
100
AcDbEntity
  8
1
 62
     3
100
AcDbText
 10
159.6442165907946
 20
329.9900548713706
 30
0.0
 40
2.5
  1
TECDOC 2D_Productdrawing
 41
0.81
  7
CONVERTER_12
100
AcDbText
  0
MTEXT
  5
240
330
71
100
AcDbEntity
  8
1
 62
     2
100
AcDbMText
 10
131.8442165907946
 20
344.6900548713707
 30
0.0
 40
1.8
 41
0.0
 71
     1
 72
     1
  1
document-No. / RI
  7
CONVERTER_13
 73
     1
 44
1.32052821128451
  0
TEXT
  5
241
330
71
100
AcDbEntity
  8
1
 62
     7
100
AcDbText
 10
131.8442165907946
 20
338.4900548713706
 30
0.0
 40
2.5
  1
00327057
 41
0.81
  7
CONVERTER_12
100
AcDbText
  0
MTEXT
  5
243
330
71
100
AcDbEntity
  8
1
 62
     3
100
AcDbMText
 10
219.429816976707
 20
338.4900548713707
 30
0.0
 40
2.5
 41
0.0
 71
     8
 72
     1
  1
1:1
  7
CONVERTER_14
 73
     1
 44
1.32052821128451
  0
MTEXT
  5
244
330
71
100
AcDbEntity
  8
1
 62
     2
100
AcDbMText
 10
216.0706128358673
 20
344.6900548713707
 30
0.0
 40
1.8
 41
0.0
 71
     1
 72
     1
  1
scale
  7
CONVERTER_11
 73
     1
 44
1.20048019207683
  0
MTEXT
  5
245
330
71
100
AcDbEntity
  8
1
 62
     2
100
AcDbMText
 10
131.8442165907946
 20
336.1900548713707
 30
0.0
 40
1.8
 41
0.0
 71
     1
 72
     1
  1
ident.-No.
  7
CONVERTER_11
 73
     1
 44
1.20048019207683
  0
TEXT
  5
246
330
71
100
AcDbEntity
  8
1
 62
     7
100
AcDbText
 10
132.2442165907943
 20
329.9900548713706
 30
0.0
 40
2.5
  1
3003101
 41
0.81
  7
CONVERTER_12
100
AcDbText
  0
MTEXT
  5
247
330
71
100
AcDbEntity
  8
1
 62
     2
100
AcDbMText
 10
59.90620186574711
 20
332.9400548713705
 30
0.0
 40
2.0
 41
0.0
 71
     5
 72
     1
  1
General Information\P- Simplified representation\P- Document excluded from change process\P- Linear dimensions [mm]
  7
CONVERTER_11
 73
     1
 44
1.20048019207683
  0
MTEXT
  5
248
330
71
100
AcDbEntity
  8
1
 62
     7
100
AcDbMText
 10
226.3890211175436
 20
395.1900548713726
 30
0.0
 40
3.5
 41
0.0
 71
     5
 72
     1
  1
C
  7
CONVERTER_11
 73
     1
 44
1.20048019207683
  0
MTEXT
  5
249
330
71
100
AcDbEntity
  8
1
 62
     7
100
AcDbMText
 10
226.3890211175436
 20
497.6900548713707
 30
0.0
 40
3.5
 41
0.0
 71
     5
 72
     1
  1
A
  7
CONVERTER_11
 73
     1
 44
1.20048019207683
  0
MTEXT
  5
24A
330
71
100
AcDbEntity
  8
1
 62
     7
100
AcDbMText
 10
226.3890211175436
 20
445.1900548713726
 30
0.0
 40
3.5
 41
0.0
 71
     5
 72
     1
  1
B
  7
CONVERTER_11
 73
     1
 44
1.20048019207683
  0
MTEXT
  5
24B
330
71
100
AcDbEntity
  8
1
 62
     7
100
AcDbMText
 10
226.3890211175436
 20
342.6900548713707
 30
0.0
 40
3.5
 41
0.0
 71
     5
 72
     1
  1
D
  7
CONVERTER_11
 73
     1
 44
1.20048019207683
  0
MTEXT
  5
24C
330
71
100
AcDbEntity
  8
1
 62
     7
100
AcDbMText
 10
-43.86097888245496
 20
317.6900548713705
 30
0.0
 40
3.5
 41
0.0
 71
     5
 72
     1
  1
1
  7
CONVERTER_11
 73
     1
 44
1.20048019207683
  0
MTEXT
  5
24D
330
71
100
AcDbEntity
  8
1
 62
     7
100
AcDbMText
 10
5.38902111754464
 20
317.6900548713705
 30
0.0
 40
3.5
 41
0.0
 71
     5
 72
     1
  1
2
  7
CONVERTER_11
 73
     1
 44
1.20048019207683
  0
MTEXT
  5
24E
330
71
100
AcDbEntity
  8
1
 62
     7
100
AcDbMText
 10
55.38902111754464
 20
317.6900548713705
 30
0.0
 40
3.5
 41
0.0
 71
     5
 72
     1
  1
3
  7
CONVERTER_11
 73
     1
 44
1.20048019207683
  0
MTEXT
  5
24F
330
71
100
AcDbEntity
  8
1
 62
     7
100
AcDbMText
 10
105.3890211175445
 20
317.6900548713705
 30
0.0
 40
3.5
 41
0.0
 71
     5
 72
     1
  1
4
  7
CONVERTER_11
 73
     1
 44
1.20048019207683
  0
MTEXT
  5
250
330
71
100
AcDbEntity
  8
1
 62
     7
100
AcDbMText
 10
155.3890211175446
 20
317.6900548713705
 30
0.0
 40
3.5
 41
0.0
 71
     5
 72
     1
  1
5
  7
CONVERTER_11
 73
     1
 44
1.20048019207683
  0
MTEXT
  5
251
330
71
100
AcDbEntity
  8
1
 62
     7
100
AcDbMText
 10
204.6390211175438
 20
317.6900548713705
 30
0.0
 40
3.5
 41
0.0
 71
     5
 72
     1
  1
6
  7
CONVERTER_11
 73
     1
 44
1.20048019207683
  0
MTEXT
  5
252
330
71
100
AcDbEntity
  8
1
 62
     7
100
AcDbMText
 10
-65.61097888245445
 20
497.6900548713707
 30
0.0
 40
3.5
 41
0.0
 71
     5
 72
     1
  1
A
  7
CONVERTER_11
 73
     1
 44
1.20048019207683
  0
MTEXT
  5
253
330
71
100
AcDbEntity
  8
1
 62
     7
100
AcDbMText
 10
-65.61097888245445
 20
445.1900548713707
 30
0.0
 40
3.5
 41
0.0
 71
     5
 72
     1
  1
B
  7
CONVERTER_11
 73
     1
 44
1.20048019207683
  0
MTEXT
  5
254
330
71
100
AcDbEntity
  8
1
 62
     7
100
AcDbMText
 10
-65.61097888245445
 20
395.1900548713707
 30
0.0
 40
3.5
 41
0.0
 71
     5
 72
     1
  1
C
  7
CONVERTER_11
 73
     1
 44
1.20048019207683
  0
MTEXT
  5
255
330
71
100
AcDbEntity
  8
1
 62
     7
100
AcDbMText
 10
-65.61097888245445
 20
342.6900548713707
 30
0.0
 40
3.5
 41
0.0
 71
     5
 72
     1
  1
D
  7
CONVERTER_11
 73
     1
 44
1.20048019207683
  0
MTEXT
  5
256
330
71
100
AcDbEntity
  8
1
 62
     3
100
AcDbMText
 10
120.5442165907945
 20
341.3150548713707
 30
0.0
 40
2.5
 41
0.0
 71
     5
 72
     1
  1
DIN A4
  7
CONVERTER_11
 73
     1
 44
1.20048019207683
  0
MTEXT
  5
257
330
71
100
AcDbEntity
  8
1
 62
     2
100
AcDbMText
 10
131.7442165907945
 20
327.6900548713707
 30
0.0
 40
1.8
 41
0.0
 71
     1
 72
     1
  1
description
  7
CONVERTER_11
 73
     1
 44
1.20048019207683
  0
MTEXT
  5
258
330
71
100
AcDbEntity
  8
1
 62
     7
100
AcDbMText
 10
177.3166188541701
 20
323.4400548713709
 30
0.0
 40
3.0
 41
0.0
 71
     5
 72
     1
  1
D-UK  4/10 BU
  7
CONVERTER_12
 73
     1
 44
1.20048019207683
  0
TEXT
  5
259
330
71
100
AcDbEntity
  8
1
 62
     2
100
AcDbText
 10
118.7795254006081
 20
321.4400548713705
 30
0.0
 40
1.8
  1
1
 41
0.9
  7
CONVERTER_11
100
AcDbText
  0
TEXT
  5
25A
330
71
100
AcDbEntity
  8
1
 62
     2
100
AcDbText
 10
103.9904815611366
 20
321.3908062175686
 30
0.0
 40
1.8
  1
1
 41
0.9
  7
CONVERTER_11
100
AcDbText
  0
TEXT
  5
25B
330
71
100
AcDbEntity
  8
1
 62
     2
100
AcDbText
 10
95.34421659079462
 20
321.431037656379
 30
0.0
 40
1.8
  1
page
 41
0.9
  7
CONVERTER_11
100
AcDbText
  0
TEXT
  5
25C
330
71
100
AcDbEntity
  8
1
 62
     2
100
AcDbText
 10
113.5442165907944
 20
321.431037656379
 30
0.0
 40
1.8
  1
of
 41
0.9
  7
CONVERTER_11
100
AcDbText
  0
MTEXT
  5
25D
330
71
100
AcDbEntity
  8
1
 62
     3
100
AcDbMText
 10
119.7471987424045
 20
506.9813630266694
 30
0.0
 40
1.8
 41
0.0
 71
     7
 72
     1
  3
Transfer or duplication of this document as well as the utilisation or\Pcommunication of its content are not permitted unless express consent\Pis granted. Violations give rise to claims for damages. All rights reserved\Pin case of patent, utility mo
  1
del or design patent registrations.
  7
CONVERTER_11
 73
     1
 44
0.99639855942377
  0
MTEXT
  5
25E
330
71
100
AcDbEntity
  8
1
 62
     3
100
AcDbMText
 10
-63.10591109638358
 20
506.9813630266694
 30
0.0
 40
1.8
 41
0.0
 71
     7
 72
     1
  3
Weitergabe sowie Vervielf\U+00e4ltigung dieses Dokuments, Verwertung und \PMitteilung seines Inhalts sind verboten, soweit nicht ausdr\U+00fccklich gestattet. \PZuwiderhandlungen verpflichten zu Schadenersatz. Alle Rechte f\U+00fcr den Fall\Pder Pat
  1
ent-, Gebrauchsmuster- oder Designeintragung vorbehalten.
  7
CONVERTER_11
 73
     1
 44
0.99639855942377
  0
HATCH
  5
25F
330
71
100
AcDbEntity
  8
1
  6
Continuous
 62
     2
100
AcDbHatch
 10
0.0
 20
0.0
 30
0.0
210
0.0
220
0.0
230
1.0
  2
_USER
 70
     0
 71
     1
 91
        1
 92
        1
 93
       14
 72
     2
 10
106.5854458667173
 20
329.0104596332923
 40
1.205656168390913
 50
164.9381082228845
 51
195.0618917770973
 73
     1
 72
     2
 10
107.0045737101801
 20
329.1232499953271
 40
1.639695123939408
 50
195.0618917770904
 51
275.1581447696398
 73
     1
 72
     2
 10
106.7157176154442
 20
332.3231405785487
 40
4.852596863498223
 50
275.1581447696248
 51
285.9799912583526
 73
     1
 72
     1
 10
108.051645532562
 20
327.6580582727478
 11
108.051645532562
 21
328.530575279551
 72
     2
 10
106.8735904905371
 20
330.4209259987009
 40
2.227384008972665
 50
58.06909105004051
 51
71.5519238818658
 73
     0
 72
     2
 10
107.2917582241979
 20
329.1673802226637
 40
0.9059297849848726
 50
71.55192388183899
 51
113.3722778881312
 73
     0
 72
     2
 10
107.1353181914959
 20
328.8053882039537
 40
0.5115800601948034
 50
113.3722778881781
 51
151.4785267423044
 73
     0
 72
     2
 10
107.5126754495762
 20
329.0104596332923
 40
0.941059735333242
 50
151.4785267422878
 51
208.5214732577335
 73
     0
 72
     2
 10
107.1353181914959
 20
329.2155310626313
 40
0.511580060194863
 50
208.5214732576956
 51
246.6277221117967
 73
     0
 72
     2
 10
107.2917582241979
 20
328.8535390439207
 40
0.9059297849852195
 50
246.6277221118702
 51
288.4480761181496
 73
     0
 72
     2
 10
106.8735904905371
 20
327.5999932678841
 40
2.227384008973517
 50
288.4480761181342
 51
301.9309089499596
 73
     0
 72
     1
 10
108.051645532562
 20
329.490343987034
 11
108.051645532562
 21
330.3628609938372
 72
     2
 10
106.7157176154442
 20
325.6977786880364
 40
4.852596863497986
 50
74.0200087416471
 51
84.84185523037502
 73
     1
 72
     2
 10
107.0045737101801
 20
328.8976692712573
 40
1.639695123940564
 50
84.84185523036203
 51
164.9381082228885
 73
     1
 97
       14
330
234
330
14D
330
203
330
233
330
204
330
205
330
232
330
231
330
230
330
14E
330
206
330
207
330
208
330
209
 75
     1
 76
     0
 52
45.0
 41
0.1
 77
     0
 78
     1
 53
45.0
 43
0.0
 44
0.0
 45
-0.0707106781186548
 46
0.0707106781186548
 79
     0
 98
        1
 10
0.0
 20
0.0
  0
HATCH
  5
260
330
71
100
AcDbEntity
  8
1
  6
Continuous
 62
     2
100
AcDbHatch
 10
0.0
 20
0.0
 30
0.0
210
0.0
220
0.0
230
1.0
  2
_USER
 70
     0
 71
     1
 91
        1
 92
        1
 93
       14
 72
     2
 10
106.5854458667173
 20
329.0104596332923
 40
1.205656168390913
 50
164.9381082228845
 51
195.0618917770973
 73
     1
 72
     2
 10
107.0045737101801
 20
329.1232499953271
 40
1.639695123939408
 50
195.0618917770904
 51
275.1581447696398
 73
     1
 72
     2
 10
106.7157176154442
 20
332.3231405785487
 40
4.852596863498223
 50
275.1581447696248
 51
285.9799912583526
 73
     1
 72
     1
 10
108.051645532562
 20
327.6580582727478
 11
108.051645532562
 21
328.530575279551
 72
     2
 10
106.8735904905371
 20
330.4209259987009
 40
2.227384008972665
 50
58.06909105004051
 51
71.5519238818658
 73
     0
 72
     2
 10
107.2917582241979
 20
329.1673802226637
 40
0.9059297849848726
 50
71.55192388183899
 51
113.3722778881312
 73
     0
 72
     2
 10
107.1353181914959
 20
328.8053882039537
 40
0.5115800601948034
 50
113.3722778881781
 51
151.4785267423044
 73
     0
 72
     2
 10
107.5126754495762
 20
329.0104596332923
 40
0.941059735333242
 50
151.4785267422878
 51
208.5214732577335
 73
     0
 72
     2
 10
107.1353181914959
 20
329.2155310626313
 40
0.511580060194863
 50
208.5214732576956
 51
246.6277221117967
 73
     0
 72
     2
 10
107.2917582241979
 20
328.8535390439207
 40
0.9059297849852195
 50
246.6277221118702
 51
288.4480761181496
 73
     0
 72
     2
 10
106.8735904905371
 20
327.5999932678841
 40
2.227384008973517
 50
288.4480761181342
 51
301.9309089499596
 73
     0
 72
     1
 10
108.051645532562
 20
329.490343987034
 11
108.051645532562
 21
330.3628609938372
 72
     2
 10
106.7157176154442
 20
325.6977786880364
 40
4.852596863497986
 50
74.0200087416471
 51
84.84185523037502
 73
     1
 72
     2
 10
107.0045737101801
 20
328.8976692712573
 40
1.639695123940564
 50
84.84185523036203
 51
164.9381082228885
 73
     1
 97
       14
330
234
330
14D
330
203
330
233
330
204
330
205
330
232
330
231
330
230
330
14E
330
206
330
207
330
208
330
209
 75
     1
 76
     0
 52
45.0
 41
0.1
 77
     0
 78
     1
 53
45.0
 43
0.0
 44
0.0
 45
-0.0707106781186548
 46
0.0707106781186548
 79
     0
 98
        1
 10
0.0
 20
0.0
  0
HATCH
  5
261
330
71
100
AcDbEntity
  8
1
  6
Continuous
 62
     2
100
AcDbHatch
 10
0.0
 20
0.0
 30
0.0
210
0.0
220
0.0
230
1.0
  2
_USER
 70
     0
 71
     1
 91
        1
 92
        1
 93
       18
 72
     2
 10
123.107275189433
 20
328.8976692712573
 40
1.639695123940214
 50
90.0
 51
164.9381082228966
 73
     1
 72
     2
 10
122.6881473459714
 20
329.0104596332923
 40
1.205656168392944
 50
164.9381082229104
 51
195.0618917770974
 73
     1
 72
     2
 10
123.107275189433
 20
329.1232499953271
 40
1.639695123940421
 50
195.0618917771015
 51
275.1581447696767
 73
     1
 72
     2
 10
122.8184190946972
 20
332.3231405785487
 40
4.852596863498824
 50
275.1581447696362
 51
285.9799912583381
 73
     1
 72
     1
 10
124.1543470118139
 20
327.6580582727472
 11
124.1543470118139
 21
328.5305752795506
 72
     2
 10
122.97629196979
 20
330.4209259987003
 40
2.227384008972665
 50
58.06909105005943
 51
71.5519238818658
 73
     0
 72
     2
 10
123.3944597034519
 20
329.1673802226637
 40
0.9059297849852278
 50
71.55192388191715
 51
113.3722778881832
 73
     0
 72
     2
 10
123.2380196707488
 20
328.8053882039537
 40
0.5115800601959548
 50
113.3722778881576
 51
151.4785267423238
 73
     0
 72
     2
 10
123.6153769288302
 20
329.0104596332923
 40
0.9410597353348789
 50
151.4785267423305
 51
208.521473257636
 73
     0
 72
     2
 10
123.2380196707488
 20
329.2155310626313
 40
0.5115800601944096
 50
208.5214732575755
 51
250.6628567805162
 73
     0
 72
     2
 10
123.3846896688525
 20
328.7975760822484
 40
0.9545230068260935
 50
250.6628567805699
 51
270.0
 73
     0
 72
     1
 10
123.3846896688525
 20
329.7520990890745
 11
124.4883289684206
 21
329.7520990890745
 72
     1
 10
124.4883289684206
 20
329.7520990890745
 11
124.4883289684206
 21
327.483554871387
 72
     1
 10
124.4883289684206
 20
327.483554871387
 11
125.6811216705883
 21
327.483554871387
 72
     1
 10
125.6811216705883
 20
327.483554871387
 11
125.6811216705883
 21
329.7520990890745
 72
     1
 10
125.6811216705883
 20
329.7520990890745
 11
126.4922207080617
 21
329.7520990890745
 72
     1
 10
126.4922207080617
 20
329.7520990890745
 11
126.4922207080617
 21
330.537364395198
 72
     1
 10
126.4922207080617
 20
330.537364395198
 11
123.107275189433
 21
330.5373643951975
 97
       18
330
1B3
330
1B2
330
1B1
330
1B0
330
1B5
330
14F
330
22D
330
20E
330
22C
330
20F
330
22B
330
22A
330
150
330
229
330
228
330
210
330
211
330
1B4
 75
     1
 76
     0
 52
45.0
 41
0.1
 77
     0
 78
     1
 53
45.0
 43
0.0
 44
0.0
 45
-0.0707106781186548
 46
0.0707106781186548
 79
     0
 98
        1
 10
0.0
 20
0.0
  0
HATCH
  5
262
330
71
100
AcDbEntity
  8
1
  6
Continuous
 62
     2
100
AcDbHatch
 10
0.0
 20
0.0
 30
0.0
210
0.0
220
0.0
230
1.0
  2
_USER
 70
     0
 71
     1
 91
        1
 92
        1
 93
       18
 72
     2
 10
123.107275189433
 20
328.8976692712573
 40
1.639695123940214
 50
90.0
 51
164.9381082228966
 73
     1
 72
     2
 10
122.6881473459714
 20
329.0104596332923
 40
1.205656168392944
 50
164.9381082229104
 51
195.0618917770974
 73
     1
 72
     2
 10
123.107275189433
 20
329.1232499953271
 40
1.639695123940421
 50
195.0618917771015
 51
275.1581447696767
 73
     1
 72
     2
 10
122.8184190946972
 20
332.3231405785487
 40
4.852596863498824
 50
275.1581447696362
 51
285.9799912583381
 73
     1
 72
     1
 10
124.1543470118139
 20
327.6580582727472
 11
124.1543470118139
 21
328.5305752795506
 72
     2
 10
122.97629196979
 20
330.4209259987003
 40
2.227384008972665
 50
58.06909105005943
 51
71.5519238818658
 73
     0
 72
     2
 10
123.3944597034519
 20
329.1673802226637
 40
0.9059297849852278
 50
71.55192388191715
 51
113.3722778881832
 73
     0
 72
     2
 10
123.2380196707488
 20
328.8053882039537
 40
0.5115800601959548
 50
113.3722778881576
 51
151.4785267423238
 73
     0
 72
     2
 10
123.6153769288302
 20
329.0104596332923
 40
0.9410597353348789
 50
151.4785267423305
 51
208.521473257636
 73
     0
 72
     2
 10
123.2380196707488
 20
329.2155310626313
 40
0.5115800601944096
 50
208.5214732575755
 51
250.6628567805162
 73
     0
 72
     2
 10
123.3846896688525
 20
328.7975760822484
 40
0.9545230068260935
 50
250.6628567805699
 51
270.0
 73
     0
 72
     1
 10
123.3846896688525
 20
329.7520990890745
 11
124.4883289684206
 21
329.7520990890745
 72
     1
 10
124.4883289684206
 20
329.7520990890745
 11
124.4883289684206
 21
327.483554871387
 72
     1
 10
124.4883289684206
 20
327.483554871387
 11
125.6811216705883
 21
327.483554871387
 72
     1
 10
125.6811216705883
 20
327.483554871387
 11
125.6811216705883
 21
329.7520990890745
 72
     1
 10
125.6811216705883
 20
329.7520990890745
 11
126.4922207080617
 21
329.7520990890745
 72
     1
 10
126.4922207080617
 20
329.7520990890745
 11
126.4922207080617
 21
330.537364395198
 72
     1
 10
126.4922207080617
 20
330.537364395198
 11
123.107275189433
 21
330.5373643951975
 97
       18
330
1B3
330
1B2
330
1B1
330
1B0
330
1B5
330
14F
330
22D
330
20E
330
22C
330
20F
330
22B
330
22A
330
150
330
229
330
228
330
210
330
211
330
1B4
 75
     1
 76
     0
 52
45.0
 41
0.1
 77
     0
 78
     1
 53
45.0
 43
0.0
 44
0.0
 45
-0.0707106781186548
 46
0.0707106781186548
 79
     0
 98
        1
 10
0.0
 20
0.0
  0
HATCH
  5
263
330
71
100
AcDbEntity
  8
1
  6
Continuous
 62
     2
100
AcDbHatch
 10
0.0
 20
0.0
 30
0.0
210
0.0
220
0.0
230
1.0
  2
_USER
 70
     0
 71
     1
 91
        4
 92
        1
 93
        8
 72
     2
 10
99.00511609274002
 20
333.4723102559705
 40
0.4242446153837705
 50
90.0
 51
180.0
 73
     1
 72
     1
 10
98.58087147735722
 20
333.4723102559705
 11
98.58087147735722
 21
327.9077994867703
 72
     2
 10
99.00511609274002
 20
327.9077994867703
 40
0.4242446153828041
 50
180.0
 51
270.0
 73
     1
 72
     1
 10
99.00511609274002
 20
327.483554871387
 11
104.4784281834568
 21
327.483554871387
 72
     2
 10
104.4784281834568
 20
327.9077994867703
 40
0.4242446153832589
 50
270.0
 51
360.0
 73
     1
 72
     1
 10
104.9026727988407
 20
327.9077994867703
 11
104.9026727988407
 21
333.4723102559705
 72
     2
 10
104.4784281834568
 20
333.4723102559705
 40
0.4242446153838983
 50
0.0
 51
90.0
 73
     1
 72
     1
 10
104.4784281834568
 20
333.8965548713543
 11
99.00511609274002
 21
333.8965548713543
 97
        8
330
221
330
17E
330
220
330
17F
330
217
330
17C
330
222
330
17D
 92
       16
 93
        1
 72
     2
 10
101.6247017432575
 20
331.153428027615
 40
0.4709789327784932
 50
0.0
 51
360.0
 73
     1
 97
        1
330
235
 92
       16
 93
        8
 72
     2
 10
101.6485167579303
 20
331.153428027615
 40
0.9118481501444908
 50
295.3740086781765
 51
424.6259913218067
 73
     1
 72
     2
 10
102.1745594560182
 20
332.2625696275828
 40
0.3157169230768062
 50
115.3740086783542
 51
180.0
 73
     0
 72
     1
 10
101.8588425329414
 20
332.2625696275828
 11
101.8588425329414
 21
332.8681049160896
 72
     2
 10
102.1745594560182
 20
332.8681049160896
 40
0.3157169230759574
 50
180.0
 51
269.8110329574515
 73
     0
 72
     2
 10
102.1801755913282
 20
331.1652699685204
 40
2.018561131933266
 50
269.8110329575862
 51
450.1889670424138
 73
     0
 72
     2
 10
102.1745594560182
 20
329.4624350209515
 40
0.3157169230768062
 50
90.1889670425484
 51
180.0
 73
     0
 72
     1
 10
101.8588425329414
 20
329.4624350209515
 11
101.8588425329414
 21
330.0442864276465
 72
     2
 10
102.1745594560182
 20
330.0442864276465
 40
0.3157169230765903
 50
180.0
 51
244.6259913216502
 73
     0
 97
        8
330
22F
330
20B
330
1B7
330
22E
330
20C
330
20D
330
1B6
330
20A
 92
       16
 93
       12
 72
     1
 10
99.59901076948651
 20
328.1961104269439
 11
101.0748440304961
 21
328.1961104269439
 72
     2
 10
101.0748440304961
 20
328.5118273500206
 40
0.3157169230767067
 50
270.0
 51
360.0
 73
     1
 72
     1
 10
101.3905609535727
 20
328.5118273500206
 11
101.3905609535727
 21
330.0425982815522
 72
     2
 10
101.0748440304961
 20
330.0425982815522
 40
0.3157169230766073
 50
0.0
 51
64.80558935144916
 73
     1
 72
     2
 10
101.5974284780711
 20
331.153428027615
 40
0.911897523557486
 50
115.1944106485092
 51
244.805589351468
 73
     0
 72
     2
 10
101.0748440304961
 20
332.2642577736772
 40
0.3157169230762292
 50
295.1944106485332
 51
360.0
 73
     1
 72
     1
 10
101.3905609535727
 20
332.2642577736772
 11
101.3905609535727
 21
332.8682823927377
 72
     2
 10
101.0748440304961
 20
332.8682823927377
 40
0.3157169230766073
 50
0.0
 51
90.0
 73
     1
 72
     1
 10
101.0748440304961
 20
333.1839993158138
 11
99.59901076948651
 21
333.1839993158138
 72
     2
 10
99.59901076948651
 20
332.8682823927377
 40
0.3157169230761383
 50
90.0
 51
180.0
 73
     1
 72
     1
 10
99.28329384641083
 20
332.8682823927377
 11
99.28329384641083
 21
328.5118273500206
 72
     2
 10
99.59901076948651
 20
328.5118273500206
 40
0.3157169230756836
 50
180.0
 51
270.0
 73
     1
 97
       12
330
183
330
214
330
182
330
225
330
181
330
224
330
215
330
216
330
180
330
223
330
17B
330
226
 75
     1
 76
     0
 52
45.0
 41
0.1
 77
     0
 78
     1
 53
45.0
 43
0.0
 44
0.0
 45
-0.0707106781186548
 46
0.0707106781186548
 79
     0
 98
        1
 10
0.0
 20
0.0
  0
HATCH
  5
264
330
71
100
AcDbEntity
  8
1
  6
Continuous
 62
     2
100
AcDbHatch
 10
0.0
 20
0.0
 30
0.0
210
0.0
220
0.0
230
1.0
  2
_USER
 70
     0
 71
     1
 91
        4
 92
        1
 93
        8
 72
     2
 10
99.00511609274002
 20
333.4723102559705
 40
0.4242446153837705
 50
90.0
 51
180.0
 73
     1
 72
     1
 10
98.58087147735722
 20
333.4723102559705
 11
98.58087147735722
 21
327.9077994867703
 72
     2
 10
99.00511609274002
 20
327.9077994867703
 40
0.4242446153828041
 50
180.0
 51
270.0
 73
     1
 72
     1
 10
99.00511609274002
 20
327.483554871387
 11
104.4784281834568
 21
327.483554871387
 72
     2
 10
104.4784281834568
 20
327.9077994867703
 40
0.4242446153832589
 50
270.0
 51
360.0
 73
     1
 72
     1
 10
104.9026727988407
 20
327.9077994867703
 11
104.9026727988407
 21
333.4723102559705
 72
     2
 10
104.4784281834568
 20
333.4723102559705
 40
0.4242446153838983
 50
0.0
 51
90.0
 73
     1
 72
     1
 10
104.4784281834568
 20
333.8965548713543
 11
99.00511609274002
 21
333.8965548713543
 97
        8
330
221
330
17E
330
220
330
17F
330
217
330
17C
330
222
330
17D
 92
       16
 93
        1
 72
     2
 10
101.6247017432575
 20
331.153428027615
 40
0.4709789327784932
 50
0.0
 51
360.0
 73
     1
 97
        1
330
235
 92
       16
 93
        8
 72
     2
 10
101.6485167579303
 20
331.153428027615
 40
0.9118481501444908
 50
295.3740086781765
 51
424.6259913218067
 73
     1
 72
     2
 10
102.1745594560182
 20
332.2625696275828
 40
0.3157169230768062
 50
115.3740086783542
 51
180.0
 73
     0
 72
     1
 10
101.8588425329414
 20
332.2625696275828
 11
101.8588425329414
 21
332.8681049160896
 72
     2
 10
102.1745594560182
 20
332.8681049160896
 40
0.3157169230759574
 50
180.0
 51
269.8110329574515
 73
     0
 72
     2
 10
102.1801755913282
 20
331.1652699685204
 40
2.018561131933266
 50
269.8110329575862
 51
450.1889670424138
 73
     0
 72
     2
 10
102.1745594560182
 20
329.4624350209515
 40
0.3157169230768062
 50
90.1889670425484
 51
180.0
 73
     0
 72
     1
 10
101.8588425329414
 20
329.4624350209515
 11
101.8588425329414
 21
330.0442864276465
 72
     2
 10
102.1745594560182
 20
330.0442864276465
 40
0.3157169230765903
 50
180.0
 51
244.6259913216502
 73
     0
 97
        8
330
22F
330
20B
330
1B7
330
22E
330
20C
330
20D
330
1B6
330
20A
 92
       16
 93
       12
 72
     1
 10
99.59901076948651
 20
328.1961104269439
 11
101.0748440304961
 21
328.1961104269439
 72
     2
 10
101.0748440304961
 20
328.5118273500206
 40
0.3157169230767067
 50
270.0
 51
360.0
 73
     1
 72
     1
 10
101.3905609535727
 20
328.5118273500206
 11
101.3905609535727
 21
330.0425982815522
 72
     2
 10
101.0748440304961
 20
330.0425982815522
 40
0.3157169230766073
 50
0.0
 51
64.80558935144916
 73
     1
 72
     2
 10
101.5974284780711
 20
331.153428027615
 40
0.911897523557486
 50
115.1944106485092
 51
244.805589351468
 73
     0
 72
     2
 10
101.0748440304961
 20
332.2642577736772
 40
0.3157169230762292
 50
295.1944106485332
 51
360.0
 73
     1
 72
     1
 10
101.3905609535727
 20
332.2642577736772
 11
101.3905609535727
 21
332.8682823927377
 72
     2
 10
101.0748440304961
 20
332.8682823927377
 40
0.3157169230766073
 50
0.0
 51
90.0
 73
     1
 72
     1
 10
101.0748440304961
 20
333.1839993158138
 11
99.59901076948651
 21
333.1839993158138
 72
     2
 10
99.59901076948651
 20
332.8682823927377
 40
0.3157169230761383
 50
90.0
 51
180.0
 73
     1
 72
     1
 10
99.28329384641083
 20
332.8682823927377
 11
99.28329384641083
 21
328.5118273500206
 72
     2
 10
99.59901076948651
 20
328.5118273500206
 40
0.3157169230756836
 50
180.0
 51
270.0
 73
     1
 97
       12
330
183
330
214
330
182
330
225
330
181
330
224
330
215
330
216
330
180
330
223
330
17B
330
226
 75
     1
 76
     0
 52
45.0
 41
0.1
 77
     0
 78
     1
 53
45.0
 43
0.0
 44
0.0
 45
-0.0707106781186548
 46
0.0707106781186548
 79
     0
 98
        1
 10
0.0
 20
0.0
  0
HATCH
  5
265
330
71
100
AcDbEntity
  8
1
  6
Continuous
 62
     2
100
AcDbHatch
 10
0.0
 20
0.0
 30
0.0
210
0.0
220
0.0
230
1.0
  2
_USER
 70
     0
 71
     1
 91
        2
 92
        1
 93
       12
 72
     2
 10
113.6802800967293
 20
332.3696501094665
 40
1.526904761905996
 50
90.0
 51
270.0
 73
     1
 72
     1
 10
113.6802800967293
 20
330.8427453475613
 11
116.8305998205103
 21
330.8427453475613
 72
     1
 10
116.8305998205103
 20
330.8427453475613
 11
116.8305998205103
 21
331.5407589530038
 72
     1
 10
116.8305998205103
 20
331.5407589530038
 11
115.4946719940826
 21
331.5407589530038
 72
     1
 10
115.4946719940826
 20
331.5407589530038
 11
115.4946719940826
 21
332.0206433067455
 72
     1
 10
115.4946719940826
 20
332.0206433067455
 11
116.8305998205103
 21
332.0206433067455
 72
     1
 10
116.8305998205103
 20
332.0206433067455
 11
116.8305998205103
 21
332.7186569121877
 72
     1
 10
116.8305998205103
 20
332.7186569121877
 11
115.4946719940826
 21
332.7186569121877
 72
     1
 10
115.4946719940826
 20
332.7186569121877
 11
115.4946719940826
 21
333.1985412659295
 72
     1
 10
115.4946719940826
 20
333.1985412659295
 11
116.8305998205103
 21
333.1985412659295
 72
     1
 10
116.8305998205103
 20
333.1985412659295
 11
116.8305998205103
 21
333.8965548713725
 72
     1
 10
116.8305998205103
 20
333.8965548713725
 11
113.6802800967293
 21
333.8965548713725
 97
       12
330
172
330
16C
330
193
330
192
330
191
330
190
330
16D
330
16E
330
16F
330
170
330
212
330
171
 92
       16
 93
        4
 72
     2
 10
114.0962921432408
 20
332.3696501094665
 40
0.7717997786797889
 50
141.8795802028311
 51
218.1204197971522
 73
     1
 72
     2
 10
113.8965521068945
 20
332.2129189313462
 40
0.5179085730135184
 50
218.12041979716
 51
321.8795802028458
 73
     1
 72
     2
 10
113.6968120705483
 20
332.3696501094665
 40
0.7717997786796023
 50
321.8795802028471
 51
398.1204197971695
 73
     1
 72
     2
 10
113.8965521068945
 20
332.526381287587
 40
0.5179085730135855
 50
38.12041979715421
 51
141.87958020284
 73
     1
 97
        4
330
21F
330
21E
330
219
330
218
 75
     1
 76
     0
 52
45.0
 41
0.1
 77
     0
 78
     1
 53
45.0
 43
0.0
 44
0.0
 45
-0.0707106781186548
 46
0.0707106781186548
 79
     0
 98
        1
 10
0.0
 20
0.0
  0
HATCH
  5
266
330
71
100
AcDbEntity
  8
1
  6
Continuous
 62
     2
100
AcDbHatch
 10
0.0
 20
0.0
 30
0.0
210
0.0
220
0.0
230
1.0
  2
_USER
 70
     0
 71
     1
 91
        2
 92
        1
 93
       12
 72
     2
 10
113.6802800967293
 20
332.3696501094665
 40
1.526904761905996
 50
90.0
 51
270.0
 73
     1
 72
     1
 10
113.6802800967293
 20
330.8427453475613
 11
116.8305998205103
 21
330.8427453475613
 72
     1
 10
116.8305998205103
 20
330.8427453475613
 11
116.8305998205103
 21
331.5407589530038
 72
     1
 10
116.8305998205103
 20
331.5407589530038
 11
115.4946719940826
 21
331.5407589530038
 72
     1
 10
115.4946719940826
 20
331.5407589530038
 11
115.4946719940826
 21
332.0206433067455
 72
     1
 10
115.4946719940826
 20
332.0206433067455
 11
116.8305998205103
 21
332.0206433067455
 72
     1
 10
116.8305998205103
 20
332.0206433067455
 11
116.8305998205103
 21
332.7186569121877
 72
     1
 10
116.8305998205103
 20
332.7186569121877
 11
115.4946719940826
 21
332.7186569121877
 72
     1
 10
115.4946719940826
 20
332.7186569121877
 11
115.4946719940826
 21
333.1985412659295
 72
     1
 10
115.4946719940826
 20
333.1985412659295
 11
116.8305998205103
 21
333.1985412659295
 72
     1
 10
116.8305998205103
 20
333.1985412659295
 11
116.8305998205103
 21
333.8965548713725
 72
     1
 10
116.8305998205103
 20
333.8965548713725
 11
113.6802800967293
 21
333.8965548713725
 97
       12
330
172
330
16C
330
193
330
192
330
191
330
190
330
16D
330
16E
330
16F
330
170
330
212
330
171
 92
       16
 93
        4
 72
     2
 10
114.0962921432408
 20
332.3696501094665
 40
0.7717997786797889
 50
141.8795802028311
 51
218.1204197971522
 73
     1
 72
     2
 10
113.8965521068945
 20
332.2129189313462
 40
0.5179085730135184
 50
218.12041979716
 51
321.8795802028458
 73
     1
 72
     2
 10
113.6968120705483
 20
332.3696501094665
 40
0.7717997786796023
 50
321.8795802028471
 51
398.1204197971695
 73
     1
 72
     2
 10
113.8965521068945
 20
332.526381287587
 40
0.5179085730135855
 50
38.12041979715421
 51
141.87958020284
 73
     1
 97
        4
330
21F
330
21E
330
219
330
218
 75
     1
 76
     0
 52
45.0
 41
0.1
 77
     0
 78
     1
 53
45.0
 43
0.0
 44
0.0
 45
-0.0707106781186548
 46
0.0707106781186548
 79
     0
 98
        1
 10
0.0
 20
0.0
  0
HATCH
  5
267
330
71
100
AcDbEntity
  8
1
  6
Continuous
 62
     2
100
AcDbHatch
 10
0.0
 20
0.0
 30
0.0
210
0.0
220
0.0
230
1.0
  2
_USER
 70
     0
 71
     1
 91
        2
 92
        1
 93
        4
 72
     2
 10
109.6546647342677
 20
329.0104596332923
 40
1.458034083651371
 50
117.5481481756655
 51
242.4518518243397
 73
     1
 72
     2
 10
109.935604626101
 20
329.5490346435955
 40
2.065479772208541
 50
242.4518518243402
 51
297.5481481756871
 73
     1
 72
     2
 10
110.2165445179343
 20
329.0104596332923
 40
1.458034083652135
 50
297.5481481756989
 51
422.4518518242958
 73
     1
 72
     2
 10
109.935604626101
 20
328.4718846229895
 40
2.065479772208499
 50
62.45185182430493
 51
117.5481481756678
 73
     1
 97
        4
330
21D
330
21A
330
21C
330
21B
 92
       16
 93
        4
 72
     2
 10
109.935604626101
 20
329.1671908114128
 40
0.5179085730132297
 50
38.12041979713714
 51
141.8795802028687
 73
     1
 72
     2
 10
110.1353446624471
 20
329.0104596332923
 40
0.7717997786793755
 50
141.8795802028446
 51
218.1204197971787
 73
     1
 72
     2
 10
109.935604626101
 20
328.8537284551723
 40
0.5179085730138231
 50
218.1204197972055
 51
321.8795802027886
 73
     1
 72
     2
 10
109.7358645897546
 20
329.0104596332923
 40
0.7717997786797889
 50
321.8795802028312
 51
398.1204197971456
 73
     1
 97
        4
330
200
330
201
330
202
330
1FF
 75
     1
 76
     0
 52
45.0
 41
0.1
 77
     0
 78
     1
 53
45.0
 43
0.0
 44
0.0
 45
-0.0707106781186548
 46
0.0707106781186548
 79
     0
 98
        1
 10
0.0
 20
0.0
  0
HATCH
  5
268
330
71
100
AcDbEntity
  8
1
  6
Continuous
 62
     2
100
AcDbHatch
 10
0.0
 20
0.0
 30
0.0
210
0.0
220
0.0
230
1.0
  2
_USER
 70
     0
 71
     1
 91
        2
 92
        1
 93
        4
 72
     2
 10
109.6546647342677
 20
329.0104596332923
 40
1.458034083651371
 50
117.5481481756655
 51
242.4518518243397
 73
     1
 72
     2
 10
109.935604626101
 20
329.5490346435955
 40
2.065479772208541
 50
242.4518518243402
 51
297.5481481756871
 73
     1
 72
     2
 10
110.2165445179343
 20
329.0104596332923
 40
1.458034083652135
 50
297.5481481756989
 51
422.4518518242958
 73
     1
 72
     2
 10
109.935604626101
 20
328.4718846229895
 40
2.065479772208499
 50
62.45185182430493
 51
117.5481481756678
 73
     1
 97
        4
330
21D
330
21A
330
21C
330
21B
 92
       16
 93
        4
 72
     2
 10
109.935604626101
 20
329.1671908114128
 40
0.5179085730132297
 50
38.12041979713714
 51
141.8795802028687
 73
     1
 72
     2
 10
110.1353446624471
 20
329.0104596332923
 40
0.7717997786793755
 50
141.8795802028446
 51
218.1204197971787
 73
     1
 72
     2
 10
109.935604626101
 20
328.8537284551723
 40
0.5179085730138231
 50
218.1204197972055
 51
321.8795802027886
 73
     1
 72
     2
 10
109.7358645897546
 20
329.0104596332923
 40
0.7717997786797889
 50
321.8795802028312
 51
398.1204197971456
 73
     1
 97
        4
330
200
330
201
330
202
330
1FF
 75
     1
 76
     0
 52
45.0
 41
0.1
 77
     0
 78
     1
 53
45.0
 43
0.0
 44
0.0
 45
-0.0707106781186548
 46
0.0707106781186548
 79
     0
 98
        1
 10
0.0
 20
0.0
  0
HATCH
  5
269
330
71
100
AcDbEntity
  8
1
  6
Continuous
 62
     2
100
AcDbHatch
 10
0.0
 20
0.0
 30
0.0
210
0.0
220
0.0
230
1.0
  2
_USER
 70
     0
 71
     1
 91
        2
 92
        1
 93
        6
 72
     1
 10
105.3797898797075
 20
333.8965548713725
 11
105.3797898797075
 21
330.8427453475613
 72
     1
 10
105.3797898797075
 20
330.8427453475613
 11
106.6202942899616
 21
330.8427453475613
 72
     1
 10
106.6202942899616
 20
330.8427453475613
 11
106.6202942899616
 21
331.7858235887051
 72
     1
 10
106.6202942899616
 20
331.7858235887051
 11
107.3790618777419
 21
331.7858235887051
 72
     2
 10
107.3790618777419
 20
332.8411892300388
 40
1.055365641333708
 50
270.0
 51
450.0
 73
     1
 72
     1
 10
107.3790618777419
 20
333.8965548713725
 11
105.3797898797075
 21
333.8965548713725
 97
        6
330
227
330
184
330
17A
330
179
330
186
330
185
 92
       16
 93
        4
 72
     1
 10
106.9375893515035
 20
333.2334490259324
 11
106.6202942899616
 21
333.2334490259324
 72
     1
 10
106.6202942899616
 20
333.2334490259324
 11
106.6202942899616
 21
332.5277213765901
 72
     1
 10
106.6202942899616
 20
332.5277213765901
 11
106.9375893515035
 21
332.5277213765901
 72
     2
 10
106.9375893515035
 20
332.8805852012613
 40
0.3528638246712035
 50
270.0
 51
450.0
 73
     1
 97
        4
330
187
330
178
330
188
330
213
 75
     1
 76
     0
 52
45.0
 41
0.1
 77
     0
 78
     1
 53
45.0
 43
0.0
 44
0.0
 45
-0.0707106781186548
 46
0.0707106781186548
 79
     0
 98
        1
 10
0.0
 20
0.0
  0
HATCH
  5
26A
330
71
100
AcDbEntity
  8
1
  6
Continuous
 62
     2
100
AcDbHatch
 10
0.0
 20
0.0
 30
0.0
210
0.0
220
0.0
230
1.0
  2
_USER
 70
     0
 71
     1
 91
        2
 92
        1
 93
        6
 72
     1
 10
105.3797898797075
 20
333.8965548713725
 11
105.3797898797075
 21
330.8427453475613
 72
     1
 10
105.3797898797075
 20
330.8427453475613
 11
106.6202942899616
 21
330.8427453475613
 72
     1
 10
106.6202942899616
 20
330.8427453475613
 11
106.6202942899616
 21
331.7858235887051
 72
     1
 10
106.6202942899616
 20
331.7858235887051
 11
107.3790618777419
 21
331.7858235887051
 72
     2
 10
107.3790618777419
 20
332.8411892300388
 40
1.055365641333708
 50
270.0
 51
450.0
 73
     1
 72
     1
 10
107.3790618777419
 20
333.8965548713725
 11
105.3797898797075
 21
333.8965548713725
 97
        6
330
227
330
184
330
17A
330
179
330
186
330
185
 92
       16
 93
        4
 72
     1
 10
106.9375893515035
 20
333.2334490259324
 11
106.6202942899616
 21
333.2334490259324
 72
     1
 10
106.6202942899616
 20
333.2334490259324
 11
106.6202942899616
 21
332.5277213765901
 72
     1
 10
106.6202942899616
 20
332.5277213765901
 11
106.9375893515035
 21
332.5277213765901
 72
     2
 10
106.9375893515035
 20
332.8805852012613
 40
0.3528638246712035
 50
270.0
 51
450.0
 73
     1
 97
        4
330
187
330
178
330
188
330
213
 75
     1
 76
     0
 52
45.0
 41
0.1
 77
     0
 78
     1
 53
45.0
 43
0.0
 44
0.0
 45
-0.0707106781186548
 46
0.0707106781186548
 79
     0
 98
        1
 10
0.0
 20
0.0
  0
HATCH
  5
26B
330
71
100
AcDbEntity
  8
1
  6
Continuous
 62
     2
100
AcDbHatch
 10
0.0
 20
0.0
 30
0.0
210
0.0
220
0.0
230
1.0
  2
_USER
 70
     0
 71
     1
 91
        1
 92
        1
 93
       12
 72
     1
 10
124.9940730741407
 20
333.8965548713725
 11
126.3967972918879
 21
333.8965548713725
 72
     1
 10
126.3967972918879
 20
333.8965548713725
 11
125.0942676611214
 21
332.4236043413363
 72
     1
 10
125.0942676611214
 20
332.4236043413363
 11
126.4922207080617
 21
330.8427453475613
 72
     1
 10
126.4922207080617
 20
330.8427453475613
 11
125.0894964903134
 21
330.8427453475613
 72
     1
 10
125.0894964903134
 20
330.8427453475613
 11
124.3929055522479
 21
331.6304771328549
 72
     1
 10
124.3929055522479
 20
331.6304771328549
 11
123.6963146141822
 21
330.8427453475613
 72
     1
 10
123.6963146141822
 20
330.8427453475613
 11
122.293590396434
 21
330.8427453475613
 72
     1
 10
122.293590396434
 20
330.8427453475613
 11
123.6915434433743
 21
332.4236043413363
 72
     1
 10
123.6915434433743
 20
332.4236043413363
 11
122.3890138126068
 21
333.8965548713725
 72
     1
 10
122.3890138126068
 20
333.8965548713725
 11
123.7917380303561
 21
333.8965548713725
 72
     1
 10
123.7917380303561
 20
333.8965548713725
 11
124.3929055522479
 21
333.2167315498169
 72
     1
 10
124.3929055522479
 20
333.2167315498169
 11
124.9940730741407
 21
333.8965548713725
 97
       12
330
153
330
1AC
330
1AB
330
1AA
330
1A9
330
154
330
155
330
151
330
152
330
1AF
330
1AE
330
1AD
 75
     1
 76
     0
 52
45.0
 41
0.1
 77
     0
 78
     1
 53
45.0
 43
0.0
 44
0.0
 45
-0.0707106781186548
 46
0.0707106781186548
 79
     0
 98
        1
 10
0.0
 20
0.0
  0
HATCH
  5
26C
330
71
100
AcDbEntity
  8
1
  6
Continuous
 62
     2
100
AcDbHatch
 10
0.0
 20
0.0
 30
0.0
210
0.0
220
0.0
230
1.0
  2
_USER
 70
     0
 71
     1
 91
        1
 92
        1
 93
       12
 72
     1
 10
124.9940730741407
 20
333.8965548713725
 11
126.3967972918879
 21
333.8965548713725
 72
     1
 10
126.3967972918879
 20
333.8965548713725
 11
125.0942676611214
 21
332.4236043413363
 72
     1
 10
125.0942676611214
 20
332.4236043413363
 11
126.4922207080617
 21
330.8427453475613
 72
     1
 10
126.4922207080617
 20
330.8427453475613
 11
125.0894964903134
 21
330.8427453475613
 72
     1
 10
125.0894964903134
 20
330.8427453475613
 11
124.3929055522479
 21
331.6304771328549
 72
     1
 10
124.3929055522479
 20
331.6304771328549
 11
123.6963146141822
 21
330.8427453475613
 72
     1
 10
123.6963146141822
 20
330.8427453475613
 11
122.293590396434
 21
330.8427453475613
 72
     1
 10
122.293590396434
 20
330.8427453475613
 11
123.6915434433743
 21
332.4236043413363
 72
     1
 10
123.6915434433743
 20
332.4236043413363
 11
122.3890138126068
 21
333.8965548713725
 72
     1
 10
122.3890138126068
 20
333.8965548713725
 11
123.7917380303561
 21
333.8965548713725
 72
     1
 10
123.7917380303561
 20
333.8965548713725
 11
124.3929055522479
 21
333.2167315498169
 72
     1
 10
124.3929055522479
 20
333.2167315498169
 11
124.9940730741407
 21
333.8965548713725
 97
       12
330
153
330
1AC
330
1AB
330
1AA
330
1A9
330
154
330
155
330
151
330
152
330
1AF
330
1AE
330
1AD
 75
     1
 76
     0
 52
45.0
 41
0.1
 77
     0
 78
     1
 53
45.0
 43
0.0
 44
0.0
 45
-0.0707106781186548
 46
0.0707106781186548
 79
     0
 98
        1
 10
0.0
 20
0.0
  0
HATCH
  5
26D
330
71
100
AcDbEntity
  8
1
  6
Continuous
 62
     2
100
AcDbHatch
 10
0.0
 20
0.0
 30
0.0
210
0.0
220
0.0
230
1.0
  2
_USER
 70
     0
 71
     1
 91
        1
 92
        1
 93
        4
 72
     1
 10
122.1743111262171
 20
333.8965548713725
 11
122.1743111262171
 21
330.8427453475613
 72
     1
 10
122.1743111262171
 20
330.8427453475613
 11
120.9338067159642
 21
330.8427453475613
 72
     1
 10
120.9338067159642
 20
330.8427453475613
 11
120.9338067159642
 21
333.8965548713725
 72
     1
 10
120.9338067159642
 20
333.8965548713725
 11
122.1743111262171
 21
333.8965548713725
 97
        4
330
1A7
330
156
330
1A6
330
1A8
 75
     1
 76
     0
 52
45.0
 41
0.1
 77
     0
 78
     1
 53
45.0
 43
0.0
 44
0.0
 45
-0.0707106781186548
 46
0.0707106781186548
 79
     0
 98
        1
 10
0.0
 20
0.0
  0
HATCH
  5
26E
330
71
100
AcDbEntity
  8
1
  6
Continuous
 62
     2
100
AcDbHatch
 10
0.0
 20
0.0
 30
0.0
210
0.0
220
0.0
230
1.0
  2
_USER
 70
     0
 71
     1
 91
        1
 92
        1
 93
        4
 72
     1
 10
122.1743111262171
 20
333.8965548713725
 11
122.1743111262171
 21
330.8427453475613
 72
     1
 10
122.1743111262171
 20
330.8427453475613
 11
120.9338067159642
 21
330.8427453475613
 72
     1
 10
120.9338067159642
 20
330.8427453475613
 11
120.9338067159642
 21
333.8965548713725
 72
     1
 10
120.9338067159642
 20
333.8965548713725
 11
122.1743111262171
 21
333.8965548713725
 97
        4
330
1A7
330
156
330
1A6
330
1A8
 75
     1
 76
     0
 52
45.0
 41
0.1
 77
     0
 78
     1
 53
45.0
 43
0.0
 44
0.0
 45
-0.0707106781186548
 46
0.0707106781186548
 79
     0
 98
        1
 10
0.0
 20
0.0
  0
HATCH
  5
26F
330
71
100
AcDbEntity
  8
1
  6
Continuous
 62
     2
100
AcDbHatch
 10
0.0
 20
0.0
 30
0.0
210
0.0
220
0.0
230
1.0
  2
_USER
 70
     0
 71
     1
 91
        2
 92
        1
 93
        8
 72
     1
 10
121.7838671226851
 20
327.483554871387
 11
120.5433627124312
 21
327.483554871387
 72
     1
 10
120.5433627124312
 20
327.483554871387
 11
120.3318826589554
 21
328.0245154156048
 72
     1
 10
120.3318826589554
 20
328.0245154156048
 11
119.1994410822816
 21
328.0245154156048
 72
     1
 10
119.1994410822816
 20
328.0245154156048
 11
118.9879610288058
 21
327.483554871387
 72
     1
 10
118.9879610288058
 20
327.483554871387
 11
117.7474566185528
 21
327.483554871387
 72
     1
 10
117.7474566185528
 20
327.483554871387
 11
119.1454096654921
 21
330.537364395198
 72
     1
 10
119.1454096654921
 20
330.537364395198
 11
120.3859140757448
 21
330.537364395198
 72
     1
 10
120.3859140757448
 20
330.537364395198
 11
121.7838671226851
 21
327.483554871387
 97
        8
330
1A2
330
15C
330
1A1
330
1A4
330
159
330
1A3
330
15A
330
15B
 92
       16
 93
        3
 72
     1
 10
119.4654966334266
 20
328.7050786809115
 11
120.0658271078091
 21
328.7050786809115
 72
     1
 10
120.0658271078091
 20
328.7050786809115
 11
119.765661870619
 21
329.4728936468981
 72
     1
 10
119.765661870619
 20
329.4728936468981
 11
119.4654966334266
 21
328.7050786809115
 97
        3
330
158
330
157
330
1A5
 75
     1
 76
     0
 52
45.0
 41
0.1
 77
     0
 78
     1
 53
45.0
 43
0.0
 44
0.0
 45
-0.0707106781186548
 46
0.0707106781186548
 79
     0
 98
        1
 10
0.0
 20
0.0
  0
HATCH
  5
270
330
71
100
AcDbEntity
  8
1
  6
Continuous
 62
     2
100
AcDbHatch
 10
0.0
 20
0.0
 30
0.0
210
0.0
220
0.0
230
1.0
  2
_USER
 70
     0
 71
     1
 91
        2
 92
        1
 93
        8
 72
     1
 10
121.7838671226851
 20
327.483554871387
 11
120.5433627124312
 21
327.483554871387
 72
     1
 10
120.5433627124312
 20
327.483554871387
 11
120.3318826589554
 21
328.0245154156048
 72
     1
 10
120.3318826589554
 20
328.0245154156048
 11
119.1994410822816
 21
328.0245154156048
 72
     1
 10
119.1994410822816
 20
328.0245154156048
 11
118.9879610288058
 21
327.483554871387
 72
     1
 10
118.9879610288058
 20
327.483554871387
 11
117.7474566185528
 21
327.483554871387
 72
     1
 10
117.7474566185528
 20
327.483554871387
 11
119.1454096654921
 21
330.537364395198
 72
     1
 10
119.1454096654921
 20
330.537364395198
 11
120.3859140757448
 21
330.537364395198
 72
     1
 10
120.3859140757448
 20
330.537364395198
 11
121.7838671226851
 21
327.483554871387
 97
        8
330
1A2
330
15C
330
1A1
330
1A4
330
159
330
1A3
330
15A
330
15B
 92
       16
 93
        3
 72
     1
 10
119.4654966334266
 20
328.7050786809115
 11
120.0658271078091
 21
328.7050786809115
 72
     1
 10
120.0658271078091
 20
328.7050786809115
 11
119.765661870619
 21
329.4728936468981
 72
     1
 10
119.765661870619
 20
329.4728936468981
 11
119.4654966334266
 21
328.7050786809115
 97
        3
330
158
330
157
330
1A5
 75
     1
 76
     0
 52
45.0
 41
0.1
 77
     0
 78
     1
 53
45.0
 43
0.0
 44
0.0
 45
-0.0707106781186548
 46
0.0707106781186548
 79
     0
 98
        1
 10
0.0
 20
0.0
  0
HATCH
  5
271
330
71
100
AcDbEntity
  8
1
  6
Continuous
 62
     2
100
AcDbHatch
 10
0.0
 20
0.0
 30
0.0
210
0.0
220
0.0
230
1.0
  2
_USER
 70
     0
 71
     1
 91
        1
 92
        1
 93
        8
 72
     1
 10
115.5899444793706
 20
330.537364395198
 11
115.5899444793706
 21
329.7520990890745
 72
     1
 10
115.5899444793706
 20
329.7520990890745
 11
116.4010435168452
 21
329.7520990890745
 72
     1
 10
116.4010435168452
 20
329.7520990890745
 11
116.4010435168452
 21
327.483554871387
 72
     1
 10
116.4010435168452
 20
327.483554871387
 11
117.5938362190117
 21
327.483554871387
 72
     1
 10
117.5938362190117
 20
327.483554871387
 11
117.5938362190117
 21
329.7520990890745
 72
     1
 10
117.5938362190117
 20
329.7520990890745
 11
118.4049352564842
 21
329.7520990890745
 72
     1
 10
118.4049352564842
 20
329.7520990890745
 11
118.4049352564842
 21
330.537364395198
 72
     1
 10
118.4049352564842
 20
330.537364395198
 11
115.5899444793706
 21
330.537364395198
 97
        8
330
19E
330
19D
330
19C
330
15D
330
15E
330
1A0
330
15F
330
19F
 75
     1
 76
     0
 52
45.0
 41
0.1
 77
     0
 78
     1
 53
45.0
 43
0.0
 44
0.0
 45
-0.0707106781186548
 46
0.0707106781186548
 79
     0
 98
        1
 10
0.0
 20
0.0
  0
HATCH
  5
272
330
71
100
AcDbEntity
  8
1
  6
Continuous
 62
     2
100
AcDbHatch
 10
0.0
 20
0.0
 30
0.0
210
0.0
220
0.0
230
1.0
  2
_USER
 70
     0
 71
     1
 91
        1
 92
        1
 93
        8
 72
     1
 10
115.5899444793706
 20
330.537364395198
 11
115.5899444793706
 21
329.7520990890745
 72
     1
 10
115.5899444793706
 20
329.7520990890745
 11
116.4010435168452
 21
329.7520990890745
 72
     1
 10
116.4010435168452
 20
329.7520990890745
 11
116.4010435168452
 21
327.483554871387
 72
     1
 10
116.4010435168452
 20
327.483554871387
 11
117.5938362190117
 21
327.483554871387
 72
     1
 10
117.5938362190117
 20
327.483554871387
 11
117.5938362190117
 21
329.7520990890745
 72
     1
 10
117.5938362190117
 20
329.7520990890745
 11
118.4049352564842
 21
329.7520990890745
 72
     1
 10
118.4049352564842
 20
329.7520990890745
 11
118.4049352564842
 21
330.537364395198
 72
     1
 10
118.4049352564842
 20
330.537364395198
 11
115.5899444793706
 21
330.537364395198
 97
        8
330
19E
330
19D
330
19C
330
15D
330
15E
330
1A0
330
15F
330
19F
 75
     1
 76
     0
 52
45.0
 41
0.1
 77
     0
 78
     1
 53
45.0
 43
0.0
 44
0.0
 45
-0.0707106781186548
 46
0.0707106781186548
 79
     0
 98
        1
 10
0.0
 20
0.0
  0
HATCH
  5
273
330
71
100
AcDbEntity
  8
1
  6
Continuous
 62
     2
100
AcDbHatch
 10
0.0
 20
0.0
 30
0.0
210
0.0
220
0.0
230
1.0
  2
_USER
 70
     0
 71
     1
 91
        1
 92
        1
 93
       10
 72
     1
 10
118.2619510631097
 20
333.8965548713725
 11
117.0691583609432
 21
333.8965548713725
 72
     1
 10
117.0691583609432
 20
333.8965548713725
 11
117.0691583609432
 21
330.8427453475613
 72
     1
 10
117.0691583609432
 20
330.8427453475613
 11
118.2619510631097
 21
330.8427453475613
 72
     1
 10
118.2619510631097
 20
330.8427453475613
 11
118.2619510631097
 21
332.151520857766
 72
     1
 10
118.2619510631097
 20
332.151520857766
 11
119.5024554733637
 21
330.8427453475613
 72
     1
 10
119.5024554733637
 20
330.8427453475613
 11
120.6952481755303
 21
330.8427453475613
 72
     1
 10
120.6952481755303
 20
330.8427453475613
 11
120.6952481755303
 21
333.8965548713725
 72
     1
 10
120.6952481755303
 20
333.8965548713725
 11
119.5024554733637
 21
333.8965548713725
 72
     1
 10
119.5024554733637
 20
333.8965548713725
 11
119.5024554733637
 21
332.5877793611672
 72
     1
 10
119.5024554733637
 20
332.5877793611672
 11
118.2619510631097
 21
333.8965548713725
 97
       10
330
198
330
162
330
163
330
164
330
165
330
19B
330
160
330
19A
330
199
330
161
 75
     1
 76
     0
 52
45.0
 41
0.1
 77
     0
 78
     1
 53
45.0
 43
0.0
 44
0.0
 45
-0.0707106781186548
 46
0.0707106781186548
 79
     0
 98
        1
 10
0.0
 20
0.0
  0
HATCH
  5
274
330
71
100
AcDbEntity
  8
1
  6
Continuous
 62
     2
100
AcDbHatch
 10
0.0
 20
0.0
 30
0.0
210
0.0
220
0.0
230
1.0
  2
_USER
 70
     0
 71
     1
 91
        1
 92
        1
 93
       10
 72
     1
 10
118.2619510631097
 20
333.8965548713725
 11
117.0691583609432
 21
333.8965548713725
 72
     1
 10
117.0691583609432
 20
333.8965548713725
 11
117.0691583609432
 21
330.8427453475613
 72
     1
 10
117.0691583609432
 20
330.8427453475613
 11
118.2619510631097
 21
330.8427453475613
 72
     1
 10
118.2619510631097
 20
330.8427453475613
 11
118.2619510631097
 21
332.151520857766
 72
     1
 10
118.2619510631097
 20
332.151520857766
 11
119.5024554733637
 21
330.8427453475613
 72
     1
 10
119.5024554733637
 20
330.8427453475613
 11
120.6952481755303
 21
330.8427453475613
 72
     1
 10
120.6952481755303
 20
330.8427453475613
 11
120.6952481755303
 21
333.8965548713725
 72
     1
 10
120.6952481755303
 20
333.8965548713725
 11
119.5024554733637
 21
333.8965548713725
 72
     1
 10
119.5024554733637
 20
333.8965548713725
 11
119.5024554733637
 21
332.5877793611672
 72
     1
 10
119.5024554733637
 20
332.5877793611672
 11
118.2619510631097
 21
333.8965548713725
 97
       10
330
198
330
162
330
163
330
164
330
165
330
19B
330
160
330
19A
330
199
330
161
 75
     1
 76
     0
 52
45.0
 41
0.1
 77
     0
 78
     1
 53
45.0
 43
0.0
 44
0.0
 45
-0.0707106781186548
 46
0.0707106781186548
 79
     0
 98
        1
 10
0.0
 20
0.0
  0
HATCH
  5
275
330
71
100
AcDbEntity
  8
1
  6
Continuous
 62
     2
100
AcDbHatch
 10
0.0
 20
0.0
 30
0.0
210
0.0
220
0.0
230
1.0
  2
_USER
 70
     0
 71
     1
 91
        1
 92
        1
 93
       10
 72
     1
 10
113.0135122426911
 20
330.537364395198
 11
111.8207195405235
 21
330.537364395198
 72
     1
 10
111.8207195405235
 20
330.537364395198
 11
111.8207195405235
 21
327.483554871387
 72
     1
 10
111.8207195405235
 20
327.483554871387
 11
113.0135122426911
 21
327.483554871387
 72
     1
 10
113.0135122426911
 20
327.483554871387
 11
113.0135122426911
 21
328.7923303815916
 72
     1
 10
113.0135122426911
 20
328.7923303815916
 11
114.254016652944
 21
327.483554871387
 72
     1
 10
114.254016652944
 20
327.483554871387
 11
115.4468093551104
 21
327.483554871387
 72
     1
 10
115.4468093551104
 20
327.483554871387
 11
115.4468093551104
 21
330.537364395198
 72
     1
 10
115.4468093551104
 20
330.537364395198
 11
114.254016652944
 21
330.537364395198
 72
     1
 10
114.254016652944
 20
330.537364395198
 11
114.254016652944
 21
329.228588884993
 72
     1
 10
114.254016652944
 20
329.228588884993
 11
113.0135122426911
 21
330.537364395198
 97
       10
330
167
330
168
330
169
330
195
330
16A
330
16B
330
194
330
197
330
196
330
166
 75
     1
 76
     0
 52
45.0
 41
0.1
 77
     0
 78
     1
 53
45.0
 43
0.0
 44
0.0
 45
-0.0707106781186548
 46
0.0707106781186548
 79
     0
 98
        1
 10
0.0
 20
0.0
  0
HATCH
  5
276
330
71
100
AcDbEntity
  8
1
  6
Continuous
 62
     2
100
AcDbHatch
 10
0.0
 20
0.0
 30
0.0
210
0.0
220
0.0
230
1.0
  2
_USER
 70
     0
 71
     1
 91
        1
 92
        1
 93
       10
 72
     1
 10
113.0135122426911
 20
330.537364395198
 11
111.8207195405235
 21
330.537364395198
 72
     1
 10
111.8207195405235
 20
330.537364395198
 11
111.8207195405235
 21
327.483554871387
 72
     1
 10
111.8207195405235
 20
327.483554871387
 11
113.0135122426911
 21
327.483554871387
 72
     1
 10
113.0135122426911
 20
327.483554871387
 11
113.0135122426911
 21
328.7923303815916
 72
     1
 10
113.0135122426911
 20
328.7923303815916
 11
114.254016652944
 21
327.483554871387
 72
     1
 10
114.254016652944
 20
327.483554871387
 11
115.4468093551104
 21
327.483554871387
 72
     1
 10
115.4468093551104
 20
327.483554871387
 11
115.4468093551104
 21
330.537364395198
 72
     1
 10
115.4468093551104
 20
330.537364395198
 11
114.254016652944
 21
330.537364395198
 72
     1
 10
114.254016652944
 20
330.537364395198
 11
114.254016652944
 21
329.228588884993
 72
     1
 10
114.254016652944
 20
329.228588884993
 11
113.0135122426911
 21
330.537364395198
 97
       10
330
167
330
168
330
169
330
195
330
16A
330
16B
330
194
330
197
330
196
330
166
 75
     1
 76
     0
 52
45.0
 41
0.1
 77
     0
 78
     1
 53
45.0
 43
0.0
 44
0.0
 45
-0.0707106781186548
 46
0.0707106781186548
 79
     0
 98
        1
 10
0.0
 20
0.0
  0
HATCH
  5
277
330
71
100
AcDbEntity
  8
1
  6
Continuous
 62
     2
100
AcDbHatch
 10
0.0
 20
0.0
 30
0.0
210
0.0
220
0.0
230
1.0
  2
_USER
 70
     0
 71
     1
 91
        1
 92
        1
 93
       12
 72
     1
 10
112.0117173037557
 20
333.8965548713725
 11
112.0117173037557
 21
330.8427453475613
 72
     1
 10
112.0117173037557
 20
330.8427453475613
 11
110.8189246015893
 21
330.8427453475613
 72
     1
 10
110.8189246015893
 20
330.8427453475613
 11
110.8189246015893
 21
331.9770174564051
 72
     1
 10
110.8189246015893
 20
331.9770174564051
 11
109.7692670236818
 21
331.9770174564051
 72
     1
 10
109.7692670236818
 20
331.9770174564051
 11
109.7692670236818
 21
330.8427453475613
 72
     1
 10
109.7692670236818
 20
330.8427453475613
 11
108.5764743215152
 21
330.8427453475613
 72
     1
 10
108.5764743215152
 20
330.8427453475613
 11
108.5764743215152
 21
333.8965548713725
 72
     1
 10
108.5764743215152
 20
333.8965548713725
 11
109.7692670236818
 21
333.8965548713725
 72
     1
 10
109.7692670236818
 20
333.8965548713725
 11
109.7692670236818
 21
332.8277215380379
 72
     1
 10
109.7692670236818
 20
332.8277215380379
 11
110.8189246015893
 21
332.8277215380379
 72
     1
 10
110.8189246015893
 20
332.8277215380379
 11
110.8189246015893
 21
333.8965548713725
 72
     1
 10
110.8189246015893
 20
333.8965548713725
 11
112.0117173037557
 21
333.8965548713725
 97
       12
330
18F
330
18E
330
18D
330
175
330
176
330
18C
330
177
330
18B
330
18A
330
189
330
173
330
174
 75
     1
 76
     0
 52
45.0
 41
0.1
 77
     0
 78
     1
 53
45.0
 43
0.0
 44
0.0
 45
-0.0707106781186548
 46
0.0707106781186548
 79
     0
 98
        1
 10
0.0
 20
0.0
  0
HATCH
  5
278
330
71
100
AcDbEntity
  8
1
  6
Continuous
 62
     2
100
AcDbHatch
 10
0.0
 20
0.0
 30
0.0
210
0.0
220
0.0
230
1.0
  2
_USER
 70
     0
 71
     1
 91
        1
 92
        1
 93
       12
 72
     1
 10
112.0117173037557
 20
333.8965548713725
 11
112.0117173037557
 21
330.8427453475613
 72
     1
 10
112.0117173037557
 20
330.8427453475613
 11
110.8189246015893
 21
330.8427453475613
 72
     1
 10
110.8189246015893
 20
330.8427453475613
 11
110.8189246015893
 21
331.9770174564051
 72
     1
 10
110.8189246015893
 20
331.9770174564051
 11
109.7692670236818
 21
331.9770174564051
 72
     1
 10
109.7692670236818
 20
331.9770174564051
 11
109.7692670236818
 21
330.8427453475613
 72
     1
 10
109.7692670236818
 20
330.8427453475613
 11
108.5764743215152
 21
330.8427453475613
 72
     1
 10
108.5764743215152
 20
330.8427453475613
 11
108.5764743215152
 21
333.8965548713725
 72
     1
 10
108.5764743215152
 20
333.8965548713725
 11
109.7692670236818
 21
333.8965548713725
 72
     1
 10
109.7692670236818
 20
333.8965548713725
 11
109.7692670236818
 21
332.8277215380379
 72
     1
 10
109.7692670236818
 20
332.8277215380379
 11
110.8189246015893
 21
332.8277215380379
 72
     1
 10
110.8189246015893
 20
332.8277215380379
 11
110.8189246015893
 21
333.8965548713725
 72
     1
 10
110.8189246015893
 20
333.8965548713725
 11
112.0117173037557
 21
333.8965548713725
 97
       12
330
18F
330
18E
330
18D
330
175
330
176
330
18C
330
177
330
18B
330
18A
330
189
330
173
330
174
 75
     1
 76
     0
 52
45.0
 41
0.1
 77
     0
 78
     1
 53
45.0
 43
0.0
 44
0.0
 45
-0.0707106781186548
 46
0.0707106781186548
 79
     0
 98
        1
 10
0.0
 20
0.0
  0
ENDBLK
  5
73
330
71
100
AcDbEntity
  8
0
100
AcDbBlockEnd
  0
BLOCK
  5
75
330
74
100
AcDbEntity
  8
0
100
AcDbBlockBegin
  2
_punkt
 70
     0
 10
223.8890211175446
 20
320.1900548713707
 30
0.0
  3
_punkt
  1

  0
LINE
  5
279
330
74
100
AcDbEntity
  8
1
  6
Continuous
 62
     2
100
AcDbLine
 10
223.8890211175446
 20
320.1900548713707
 30
0.0
 11
223.8890211175446
 21
315.1900548713705
 31
0.0
  0
LINE
  5
27A
330
74
100
AcDbEntity
  8
1
  6
Continuous
 62
     2
100
AcDbLine
 10
223.8890211175446
 20
320.1900548713707
 30
0.0
 11
228.8890211175436
 21
320.1900548713707
 31
0.0
  0
ENDBLK
  5
76
330
74
100
AcDbEntity
  8
0
100
AcDbBlockEnd
  0
BLOCK
  5
7A
330
77
100
AcDbEntity
  8
0
100
AcDbBlockBegin
  2
A4I_CS
 70
     0
 10
223.8890211175446
 20
315.1900548713705
 30
0.0
  3
A4I_CS
  1

  0
INSERT
  5
78
330
77
100
AcDbEntity
  8
1
100
AcDbBlockReference
  2
_rahmen
 10
223.8890211175446
 20
315.1900548713705
 30
0.0
  0
INSERT
  5
79
330
77
100
AcDbEntity
  8
1
100
AcDbBlockReference
  2
_punkt
 10
223.8890211175446
 20
320.1900548713707
 30
0.0
  0
ENDBLK
  5
7B
330
77
100
AcDbEntity
  8
0
100
AcDbBlockEnd
  0
BLOCK
  5
84
330
7C
100
AcDbEntity
  8
0
100
AcDbBlockBegin
  2
1
 70
     0
 10
0.0
 20
0.0
 30
0.0
  3
1
  1

  0
INSERT
  5
7D
330
7C
100
AcDbEntity
  8
0
100
AcDbBlockReference
  2
AllgSicht1
 10
193.750002999998
 20
373.00000241754
 30
0.0
  0
INSERT
  5
7E
330
7C
100
AcDbEntity
  8
0
100
AcDbBlockReference
  2
Drfsicht1
 10
39.25000095367439
 20
382.3000088432896
 30
0.0
  0
INSERT
  5
7F
330
7C
100
AcDbEntity
  8
0
100
AcDbBlockReference
  2
Rckans1
 10
155.750002861023
 20
431.0000027915403
 30
0.0
  0
INSERT
  5
80
330
7C
100
AcDbEntity
  8
0
100
AcDbBlockReference
  2
SA_Links1
 10
96.50000190735871
 20
431.0000027915397
 30
0.0
  0
INSERT
  5
81
330
7C
100
AcDbEntity
  8
0
100
AcDbBlockReference
  2
SA_Rechts1
 10
-25.000000000005
 20
431.0000027915398
 30
0.0
  0
INSERT
  5
82
330
7C
100
AcDbEntity
  8
0
100
AcDbBlockReference
  2
Vordans1
 10
39.25000095367439
 20
431.0000027915398
 30
0.0
  0
INSERT
  5
83
330
7C
100
AcDbEntity
  8
0
100
AcDbBlockReference
  2
A4I_CS
 10
223.8890211175446
 20
315.1900548713705
 30
0.0
  0
ENDBLK
  5
85
330
7C
100
AcDbEntity
  8
0
100
AcDbBlockEnd
  0
BLOCK
  5
D3
330
C9
100
AcDbEntity
  8
0
100
AcDbBlockBegin
  2
*D17
 70
     1
 10
0.0
 20
0.0
 30
0.0
  3
*D17
  1

  0
LINE
  5
CA
330
C9
100
AcDbEntity
  8
1
  6
Continuous
 62
     2
100
AcDbLine
 10
8.0000001836723
 20
392.8872093804029
 30
0.0
 11
8.0000001836723
 21
383.0500088909683
 31
0.0
  0
LINE
  5
CB
330
C9
100
AcDbEntity
  8
1
  6
Continuous
 62
     2
100
AcDbLine
 10
8.0000001836723
 20
383.0500088909683
 30
0.0
 11
8.0000001836723
 21
381.2500088909683
 31
0.0
  0
LINE
  5
CC
330
C9
100
AcDbEntity
  8
1
  6
Continuous
 62
     2
100
AcDbLine
 10
8.0000001836723
 20
381.2500088909683
 30
0.0
 11
8.0000001836723
 21
374.2500088909683
 31
0.0
  0
LINE
  5
CD
330
C9
100
AcDbEntity
  8
1
  6
Continuous
 62
     2
100
AcDbLine
 10
18.00000018367246
 20
383.0500088909683
 30
0.0
 11
6.5000001836723
 21
383.0500088909683
 31
0.0
  0
LINE
  5
CE
330
C9
100
AcDbEntity
  8
1
  6
Continuous
 62
     2
100
AcDbLine
 10
18.00000018367246
 20
381.2500088909683
 30
0.0
 11
6.5000001836723
 21
381.2500088909683
 31
0.0
  0
SOLID
  5
CF
330
C9
100
AcDbEntity
  8
1
 62
     2
100
AcDbTrace
 10
7.53921644211642
 20
386.5500088909683
 30
0.0
 11
8.46078392522819
 21
386.5500088909683
 31
0.0
 12
8.0000001836723
 22
383.0500088909683
 32
0.0
 13
8.0000001836723
 23
383.0500088909683
 33
0.0
  0
SOLID
  5
D0
330
C9
100
AcDbEntity
  8
1
 62
     2
100
AcDbTrace
 10
8.46078392522819
 20
377.7500088909683
 30
0.0
 11
7.53921644211642
 21
377.7500088909683
 31
0.0
 12
8.0000001836723
 22
381.2500088909683
 32
0.0
 13
8.0000001836723
 23
381.2500088909683
 33
0.0
  0
MTEXT
  5
D2
330
C9
100
AcDbEntity
  8
1
 62
     3
100
AcDbMText
 10
6.1500001836723
 20
387.4622093804029
 30
0.0
 40
3.5
 41
0.0
 71
     7
 72
     1
  1
1,8
  7
CONVERTER_11
 11
0.0
 21
1.0
 31
0.0
 73
     1
 44
0.60024009603842
  0
ENDBLK
  5
D4
330
C9
100
AcDbEntity
  8
0
100
AcDbBlockEnd
  0
BLOCK
  5
133
330
12C
100
AcDbEntity
  8
0
100
AcDbBlockBegin
  2
*D18
 70
     1
 10
0.0
 20
0.0
 30
0.0
  3
*D18
  1

  0
LINE
  5
12D
330
12C
100
AcDbEntity
  8
1
  6
Continuous
 62
     2
100
AcDbLine
 10
18.00000018367246
 20
400.8327123276957
 30
0.0
 11
60.50000018367246
 21
400.8327123276957
 31
0.0
  0
LINE
  5
12E
330
12C
100
AcDbEntity
  8
1
  6
Continuous
 62
     2
100
AcDbLine
 10
18.00000018367246
 20
438.9954616935611
 30
0.0
 11
18.00000018367246
 21
398.8327123276957
 31
0.0
  0
LINE
  5
12F
330
12C
100
AcDbEntity
  8
1
  6
Continuous
 62
     2
100
AcDbLine
 10
60.50000018367246
 20
438.9954616935613
 30
0.0
 11
60.50000018367246
 21
398.8327123276957
 31
0.0
  0
SOLID
  5
130
330
12C
100
AcDbEntity
  8
1
 62
     2
100
AcDbTrace
 10
21.50000018367246
 20
401.2934960692515
 30
0.0
 11
21.50000018367246
 21
400.3719285861398
 31
0.0
 12
18.00000018367246
 22
400.8327123276957
 32
0.0
 13
18.00000018367246
 23
400.8327123276957
 33
0.0
  0
SOLID
  5
131
330
12C
100
AcDbEntity
  8
1
 62
     2
100
AcDbTrace
 10
57.00000018367246
 20
400.3719285861398
 30
0.0
 11
57.00000018367246
 21
401.2934960692515
 31
0.0
 12
60.50000018367246
 22
400.8327123276957
 32
0.0
 13
60.50000018367246
 23
400.8327123276957
 33
0.0
  0
MTEXT
  5
132
330
12C
100
AcDbEntity
  8
1
 62
     3
100
AcDbMText
 10
35.17204140586916
 20
403.1827123276957
 30
0.0
 40
3.5
 41
0.0
 71
     7
 72
     1
  1
42,5
  7
CONVERTER_11
 11
0.9999999999970619
 21
2.424068405545306E-6
 31
0.0
 73
     1
 44
0.60024009603842
  0
ENDBLK
  5
134
330
12C
100
AcDbEntity
  8
0
100
AcDbBlockEnd
  0
BLOCK
  5
13E
330
137
100
AcDbEntity
  8
0
100
AcDbBlockBegin
  2
*D19
 70
     1
 10
0.0
 20
0.0
 30
0.0
  3
*D19
  1

  0
LINE
  5
138
330
137
100
AcDbEntity
  8
1
  6
Continuous
 62
     2
100
AcDbLine
 10
10.86896227348261
 20
413.0500134263709
 30
0.0
 11
10.86896227348261
 21
448.950013426371
 31
0.0
  0
LINE
  5
139
330
137
100
AcDbEntity
  8
1
  6
Continuous
 62
     2
100
AcDbLine
 10
20.45000018367245
 20
413.0500134263709
 30
0.0
 11
8.86896227348261
 21
413.0500134263709
 31
0.0
  0
LINE
  5
13A
330
137
100
AcDbEntity
  8
1
  6
Continuous
 62
     2
100
AcDbLine
 10
26.15000018367263
 20
448.950013426371
 30
0.0
 11
8.86896227348261
 21
448.950013426371
 31
0.0
  0
SOLID
  5
13B
330
137
100
AcDbEntity
  8
1
 62
     2
100
AcDbTrace
 10
10.40817853192672
 20
416.5500134263709
 30
0.0
 11
11.32974601503849
 21
416.5500134263709
 31
0.0
 12
10.86896227348261
 22
413.0500134263709
 32
0.0
 13
10.86896227348261
 23
413.0500134263709
 33
0.0
  0
SOLID
  5
13C
330
137
100
AcDbEntity
  8
1
 62
     2
100
AcDbTrace
 10
11.32974601503849
 20
445.450013426371
 30
0.0
 11
10.40817853192672
 21
445.450013426371
 31
0.0
 12
10.86896227348261
 22
448.950013426371
 32
0.0
 13
10.86896227348261
 23
448.950013426371
 33
0.0
  0
MTEXT
  5
13D
330
137
100
AcDbEntity
  8
1
 62
     3
100
AcDbMText
 10
8.51896227348261
 20
426.5435513365611
 30
0.0
 40
3.5
 41
0.0
 71
     7
 72
     1
  1
35,9
  7
CONVERTER_11
 11
0.0
 21
1.0
 31
0.0
 73
     1
 44
0.60024009603842
  0
ENDBLK
  5
13F
330
137
100
AcDbEntity
  8
0
100
AcDbBlockEnd
  0
ENDSEC
  0
SECTION
  2
ENTITIES
  0
INSERT
  5
86
330
1F
100
AcDbEntity
  8
1
100
AcDbBlockReference
  2
1
 10
0.0
 20
0.0
 30
0.0
  0
ENDSEC
  0
SECTION
  2
OBJECTS
  0
DICTIONARY
  5
C
330
0
100
AcDbDictionary
281
     1
  3
ACAD_GROUP
350
D
  3
ACAD_LAYOUT
350
1A
  3
ACAD_MATERIAL
350
3B
  3
ACAD_MLEADERSTYLE
350
2A2
  3
ACAD_MLINESTYLE
350
17
  3
ACAD_PLOTSETTINGS
350
19
  3
ACAD_PLOTSTYLENAME
350
E
  3
ACAD_TABLESTYLE
350
2A1
  3
ACAD_VISUALSTYLE
350
2A
  0
DICTIONARY
  5
D
102
{ACAD_REACTORS
330
C
102
}
330
C
100
AcDbDictionary
281
     1
  0
DICTIONARY
  5
1A
102
{ACAD_REACTORS
330
C
102
}
330
C
100
AcDbDictionary
281
     1
  3
Layout1
350
1E
  3
Layout2
350
26
  3
Model
350
22
  0
DICTIONARY
  5
3B
102
{ACAD_REACTORS
330
C
102
}
330
C
100
AcDbDictionary
281
     1
  3
ByBlock
350
3D
  3
ByLayer
350
3C
  3
Global
350
3E
  0
DICTIONARY
  5
2A2
102
{ACAD_REACTORS
330
C
102
}
330
C
100
AcDbDictionary
281
     1
  0
DICTIONARY
  5
17
102
{ACAD_REACTORS
330
C
102
}
330
C
100
AcDbDictionary
281
     1
  3
Standard
350
18
  0
DICTIONARY
  5
19
102
{ACAD_REACTORS
330
C
102
}
330
C
100
AcDbDictionary
281
     1
  0
ACDBDICTIONARYWDFLT
  5
E
102
{ACAD_REACTORS
330
C
102
}
330
C
100
AcDbDictionary
281
     1
  3
Normal
350
F
100
AcDbDictionaryWithDefault
340
F
  0
DICTIONARY
  5
2A1
102
{ACAD_REACTORS
330
C
102
}
330
C
100
AcDbDictionary
281
     1
  0
DICTIONARY
  5
2A
102
{ACAD_REACTORS
330
C
102
}
330
C
100
AcDbDictionary
281
     1
  3
2dWireframe
350
2F
  3
3D Hidden
350
31
  3
3dWireframe
350
30
  3
Basic
350
32
  3
Brighten
350
36
  3
ColorChange
350
3A
  3
Conceptual
350
34
  3
Dim
350
35
  3
Facepattern
350
39
  3
Flat
350
2B
  3
FlatWithEdges
350
2C
  3
Gouraud
350
2D
  3
GouraudWithEdges
350
2E
  3
Linepattern
350
38
  3
Realistic
350
33
  3
Thicken
350
37
  0
LAYOUT
  5
1E
102
{ACAD_REACTORS
330
1A
102
}
330
1A
100
AcDbPlotSettings
  1

  2
none_device
  4

  6

 40
0.0
 41
0.0
 42
0.0
 43
0.0
 44
0.0
 45
0.0
 46
0.0
 47
0.0
 48
0.0
 49
0.0
140
0.0
141
0.0
142
1.0
143
1.0
 70
   688
 72
     0
 73
     0
 74
     5
  7

 75
    16
 76
     0
 77
     2
 78
   300
147
1.0
148
0.0
149
0.0
100
AcDbLayout
  1
Layout1
 70
     1
 71
     1
 10
0.0
 20
0.0
 11
12.0
 21
9.0
 12
0.0
 22
0.0
 32
0.0
 14
1.00000000000000E+20
 24
1.00000000000000E+20
 34
1.00000000000000E+20
 15
-1.00000000000000E+20
 25
-1.00000000000000E+20
 35
-1.00000000000000E+20
146
0.0
 13
0.0
 23
0.0
 33
0.0
 16
1.0
 26
0.0
 36
0.0
 17
0.0
 27
1.0
 37
0.0
 76
     0
330
1B
  0
LAYOUT
  5
26
102
{ACAD_REACTORS
330
1A
102
}
330
1A
100
AcDbPlotSettings
  1

  2
none_device
  4

  6

 40
0.0
 41
0.0
 42
0.0
 43
0.0
 44
0.0
 45
0.0
 46
0.0
 47
0.0
 48
0.0
 49
0.0
140
0.0
141
0.0
142
1.0
143
1.0
 70
   688
 72
     0
 73
     0
 74
     5
  7

 75
    16
 76
     0
 77
     2
 78
   300
147
1.0
148
0.0
149
0.0
100
AcDbLayout
  1
Layout2
 70
     1
 71
     2
 10
0.0
 20
0.0
 11
0.0
 21
0.0
 12
0.0
 22
0.0
 32
0.0
 14
0.0
 24
0.0
 34
0.0
 15
0.0
 25
0.0
 35
0.0
146
0.0
 13
0.0
 23
0.0
 33
0.0
 16
1.0
 26
0.0
 36
0.0
 17
0.0
 27
1.0
 37
0.0
 76
     0
330
23
  0
LAYOUT
  5
22
102
{ACAD_REACTORS
330
1A
102
}
330
1A
100
AcDbPlotSettings
  1

  2
none_device
  4

  6

 40
0.0
 41
0.0
 42
0.0
 43
0.0
 44
0.0
 45
0.0
 46
0.0
 47
0.0
 48
0.0
 49
0.0
140
0.0
141
0.0
142
1.0
143
1.0
 70
  1712
 72
     0
 73
     0
 74
     0
  7

 75
     0
 76
     0
 77
     2
 78
   300
147
1.0
148
0.0
149
0.0
100
AcDbLayout
  1
Model
 70
     1
 71
     0
 10
0.0
 20
0.0
 11
12.0
 21
9.0
 12
0.0
 22
0.0
 32
0.0
 14
-68.11097888245445
 24
315.1900548713705
 34
0.0
 15
228.8890211175436
 25
525.1900548713706
 35
0.0
146
0.0
 13
0.0
 23
0.0
 33
0.0
 16
1.0
 26
0.0
 36
0.0
 17
0.0
 27
1.0
 37
0.0
 76
     0
330
1F
331
29
  0
MATERIAL
  5
3D
102
{ACAD_REACTORS
330
3B
102
}
102
{ACAD_XDICTIONARY
360
29D
102
}
330
3B
100
AcDbMaterial
  1
ByBlock
  0
MATERIAL
  5
3C
102
{ACAD_REACTORS
330
3B
102
}
102
{ACAD_XDICTIONARY
360
29B
102
}
330
3B
100
AcDbMaterial
  1
ByLayer
  0
MATERIAL
  5
3E
102
{ACAD_REACTORS
330
3B
102
}
102
{ACAD_XDICTIONARY
360
29F
102
}
330
3B
100
AcDbMaterial
  1
Global
  0
MLINESTYLE
  5
18
102
{ACAD_REACTORS
330
17
102
}
330
17
100
AcDbMlineStyle
  2
Standard
 70
     0
  3

 62
   256
 51
90.0
 52
90.0
 71
     2
 49
0.5
 62
   256
  6
BYLAYER
 49
-0.5
 62
   256
  6
BYLAYER
  0
ACDBPLACEHOLDER
  5
F
102
{ACAD_REACTORS
330
E
102
}
330
E
  0
VISUALSTYLE
  5
2F
102
{ACAD_REACTORS
330
2A
102
}
102
{ACAD_XDICTIONARY
360
283
102
}
330
2A
100
AcDbVisualStyle
  2
2dWireframe
 70
     4
 71
     0
 72
     2
 73
     0
 90
        0
 40
-0.6
 41
-30.0
 62
     5
 63
     7
421
 16777215
 74
     1
 91
        4
 64
     7
 65
   257
 75
     1
175
     1
 42
1.0
 92
        0
 66
   257
 43
1.0
 76
     1
 77
     6
 78
     2
 67
     7
 79
     5
170
     0
171
     0
290
     0
174
     0
 93
        1
 44
0.0
173
     0
291
     0
 45
0.0
1001
ACAD
1000
AcDbSavedByObjectVersion
1070
     0
  0
VISUALSTYLE
  5
31
102
{ACAD_REACTORS
330
2A
102
}
102
{ACAD_XDICTIONARY
360
287
102
}
330
2A
100
AcDbVisualStyle
  2
3D Hidden
 70
     6
 71
     1
 72
     2
 73
     2
 90
        0
 40
-0.6
 41
-30.0
 62
     5
 63
     7
421
 16777215
 74
     2
 91
        2
 64
     7
 65
   257
 75
     2
175
     1
 42
40.0
 92
        0
 66
   257
 43
1.0
 76
     1
 77
     6
 78
     2
 67
     7
 79
     3
170
     0
171
     0
290
     0
174
     0
 93
        1
 44
0.0
173
     0
291
     0
 45
0.0
1001
ACAD
1000
AcDbSavedByObjectVersion
1070
     0
  0
VISUALSTYLE
  5
30
102
{ACAD_REACTORS
330
2A
102
}
102
{ACAD_XDICTIONARY
360
285
102
}
330
2A
100
AcDbVisualStyle
  2
3dWireframe
 70
     5
 71
     0
 72
     2
 73
     0
 90
        0
 40
-0.6
 41
-30.0
 62
     5
 63
     7
421
 16777215
 74
     1
 91
        4
 64
     7
 65
   257
 75
     1
175
     1
 42
1.0
 92
        0
 66
   257
 43
1.0
 76
     1
 77
     6
 78
     2
 67
     7
 79
     5
170
     0
171
     0
290
     0
174
     0
 93
        1
 44
0.0
173
     0
291
     0
 45
0.0
1001
ACAD
1000
AcDbSavedByObjectVersion
1070
     0
  0
VISUALSTYLE
  5
32
102
{ACAD_REACTORS
330
2A
102
}
102
{ACAD_XDICTIONARY
360
289
102
}
330
2A
100
AcDbVisualStyle
  2
Basic
 70
     7
 71
     1
 72
     0
 73
     1
 90
        0
 40
-0.6
 41
-30.0
 62
     5
 63
     7
421
 16777215
 74
     0
 91
        4
 64
     7
 65
   257
 75
     1
175
     1
 42
1.0
 92
        8
 66
     7
 43
1.0
 76
     1
 77
     6
 78
     2
 67
     7
 79
     5
170
     0
171
     0
290
     0
174
     0
 93
        1
 44
0.0
173
     0
291
     1
 45
0.0
1001
ACAD
1000
AcDbSavedByObjectVersion
1070
     0
  0
VISUALSTYLE
  5
36
102
{ACAD_REACTORS
330
2A
102
}
102
{ACAD_XDICTIONARY
360
291
102
}
330
2A
100
AcDbVisualStyle
  2
Brighten
 70
    12
 71
     2
 72
     2
 73
     0
 90
        0
 40
-0.6
 41
-30.0
 62
     5
 63
     7
421
 16777215
 74
     1
 91
        4
 64
     7
 65
   257
 75
     1
175
     1
 42
1.0
 92
        8
 66
     7
 43
1.0
 76
     1
 77
     6
 78
     2
 67
     7
 79
     5
170
     0
171
     0
290
     0
174
     0
 93
        1
 44
50.0
173
     0
291
     1
 45
0.0
1001
ACAD
1000
AcDbSavedByObjectVersion
1070
     0
  0
VISUALSTYLE
  5
3A
102
{ACAD_REACTORS
330
2A
102
}
102
{ACAD_XDICTIONARY
360
299
102
}
330
2A
100
AcDbVisualStyle
  2
ColorChange
 70
    16
 71
     2
 72
     2
 73
     3
 90
        0
 40
-0.6
 41
-30.0
 62
     5
 63
     8
421
  8421504
 74
     1
 91
        4
 64
     7
 65
   257
 75
     1
175
     1
 42
1.0
 92
        8
 66
     8
424
  8421504
 43
1.0
 76
     1
 77
     6
 78
     2
 67
     7
 79
     5
170
     0
171
     0
290
     0
174
     0
 93
        1
 44
0.0
173
     0
291
     1
 45
0.0
1001
ACAD
1000
AcDbSavedByObjectVersion
1070
     0
  0
VISUALSTYLE
  5
34
102
{ACAD_REACTORS
330
2A
102
}
102
{ACAD_XDICTIONARY
360
28D
102
}
330
2A
100
AcDbVisualStyle
  2
Conceptual
 70
     9
 71
     3
 72
     2
 73
     0
 90
        0
 40
-0.6
 41
-30.0
 62
     5
 63
     7
421
 16777215
 74
     2
 91
        2
 64
     7
 65
   257
 75
     1
175
     1
 42
40.0
 92
        8
 66
     7
 43
1.0
 76
     1
 77
     6
 78
     2
 67
     7
 79
     3
170
     0
171
     0
290
     0
174
     0
 93
        1
 44
0.0
173
     0
291
     0
 45
0.0
1001
ACAD
1000
AcDbSavedByObjectVersion
1070
     0
  0
VISUALSTYLE
  5
35
102
{ACAD_REACTORS
330
2A
102
}
102
{ACAD_XDICTIONARY
360
28F
102
}
330
2A
100
AcDbVisualStyle
  2
Dim
 70
    11
 71
     2
 72
     2
 73
     0
 90
        0
 40
-0.6
 41
-30.0
 62
     5
 63
     7
421
 16777215
 74
     1
 91
        4
 64
     7
 65
   257
 75
     1
175
     1
 42
1.0
 92
        8
 66
     7
 43
1.0
 76
     1
 77
     6
 78
     2
 67
     7
 79
     5
170
     0
171
     0
290
     0
174
     0
 93
        1
 44
-50.0
173
     0
291
     1
 45
0.0
1001
ACAD
1000
AcDbSavedByObjectVersion
1070
     0
  0
VISUALSTYLE
  5
39
102
{ACAD_REACTORS
330
2A
102
}
102
{ACAD_XDICTIONARY
360
297
102
}
330
2A
100
AcDbVisualStyle
  2
Facepattern
 70
    15
 71
     2
 72
     2
 73
     0
 90
        0
 40
-0.6
 41
-30.0
 62
     5
 63
     7
421
 16777215
 74
     1
 91
        4
 64
     7
 65
   257
 75
     1
175
     1
 42
1.0
 92
        8
 66
     7
 43
1.0
 76
     1
 77
     6
 78
     2
 67
     7
 79
     5
170
     0
171
     0
290
     0
174
     0
 93
        1
 44
0.0
173
     0
291
     1
 45
0.0
1001
ACAD
1000
AcDbSavedByObjectVersion
1070
     0
  0
VISUALSTYLE
  5
2B
102
{ACAD_REACTORS
330
2A
102
}
102
{ACAD_XDICTIONARY
360
27B
102
}
330
2A
100
AcDbVisualStyle
  2
Flat
 70
     0
 71
     2
 72
     1
 73
     1
 90
        2
 40
-0.6
 41
30.0
 62
     5
 63
     7
421
 16777215
 74
     0
 91
        4
 64
     7
 65
   257
 75
     1
175
     1
 42
1.0
 92
        8
 66
     7
 43
1.0
 76
     1
 77
     6
 78
     2
 67
     7
 79
     5
170
     0
171
     0
290
     0
174
     0
 93
       13
 44
0.0
173
     0
291
     1
 45
0.0
1001
ACAD
1000
AcDbSavedByObjectVersion
1070
     0
  0
VISUALSTYLE
  5
2C
102
{ACAD_REACTORS
330
2A
102
}
102
{ACAD_XDICTIONARY
360
27D
102
}
330
2A
100
AcDbVisualStyle
  2
FlatWithEdges
 70
     1
 71
     2
 72
     1
 73
     1
 90
        2
 40
-0.6
 41
30.0
 62
     5
 63
     7
421
 16777215
 74
     1
 91
        4
 64
     7
 65
   257
 75
     1
175
     1
 42
1.0
 92
        0
 66
   257
 43
1.0
 76
     1
 77
     6
 78
     2
 67
     7
 79
     5
170
     0
171
     0
290
     0
174
     0
 93
       13
 44
0.0
173
     0
291
     1
 45
0.0
1001
ACAD
1000
AcDbSavedByObjectVersion
1070
     0
  0
VISUALSTYLE
  5
2D
102
{ACAD_REACTORS
330
2A
102
}
102
{ACAD_XDICTIONARY
360
27F
102
}
330
2A
100
AcDbVisualStyle
  2
Gouraud
 70
     2
 71
     2
 72
     2
 73
     1
 90
        2
 40
-0.6
 41
30.0
 62
     5
 63
     7
421
 16777215
 74
     0
 91
        4
 64
     7
 65
   257
 75
     1
175
     1
 42
1.0
 92
        0
 66
     7
 43
1.0
 76
     1
 77
     6
 78
     2
 67
     7
 79
     5
170
     0
171
     0
290
     0
174
     0
 93
       13
 44
0.0
173
     0
291
     1
 45
0.0
1001
ACAD
1000
AcDbSavedByObjectVersion
1070
     0
  0
VISUALSTYLE
  5
2E
102
{ACAD_REACTORS
330
2A
102
}
102
{ACAD_XDICTIONARY
360
281
102
}
330
2A
100
AcDbVisualStyle
  2
GouraudWithEdges
 70
     3
 71
     2
 72
     2
 73
     1
 90
        2
 40
-0.6
 41
30.0
 62
     5
 63
     7
421
 16777215
 74
     1
 91
        4
 64
     7
 65
   257
 75
     1
175
     1
 42
1.0
 92
        0
 66
   257
 43
1.0
 76
     1
 77
     6
 78
     2
 67
     7
 79
     5
170
     0
171
     0
290
     0
174
     0
 93
       13
 44
0.0
173
     0
291
     1
 45
0.0
1001
ACAD
1000
AcDbSavedByObjectVersion
1070
     0
  0
VISUALSTYLE
  5
38
102
{ACAD_REACTORS
330
2A
102
}
102
{ACAD_XDICTIONARY
360
295
102
}
330
2A
100
AcDbVisualStyle
  2
Linepattern
 70
    14
 71
     2
 72
     2
 73
     0
 90
        0
 40
-0.6
 41
-30.0
 62
     5
 63
     7
421
 16777215
 74
     1
 91
        4
 64
     7
 65
   257
 75
     7
175
     7
 42
1.0
 92
        8
 66
     7
 43
1.0
 76
     1
 77
     6
 78
     2
 67
     7
 79
     5
170
     0
171
     0
290
     0
174
     0
 93
        1
 44
0.0
173
     0
291
     1
 45
0.0
1001
ACAD
1000
AcDbSavedByObjectVersion
1070
     0
  0
VISUALSTYLE
  5
33
102
{ACAD_REACTORS
330
2A
102
}
102
{ACAD_XDICTIONARY
360
28B
102
}
330
2A
100
AcDbVisualStyle
  2
Realistic
 70
     8
 71
     2
 72
     2
 73
     0
 90
        0
 40
-0.6
 41
-30.0
 62
     5
 63
     7
421
 16777215
 74
     1
 91
        0
 64
     7
 65
   257
 75
     1
175
     1
 42
1.0
 92
        8
 66
     8
424
  7895160
 43
1.0
 76
     1
 77
     6
 78
     2
 67
     7
 79
     5
170
     0
171
     0
290
     0
174
     0
 93
       13
 44
0.0
173
     0
291
     0
 45
0.0
1001
ACAD
1000
AcDbSavedByObjectVersion
1070
     0
  0
VISUALSTYLE
  5
37
102
{ACAD_REACTORS
330
2A
102
}
102
{ACAD_XDICTIONARY
360
293
102
}
330
2A
100
AcDbVisualStyle
  2
Thicken
 70
    13
 71
     2
 72
     2
 73
     0
 90
        0
 40
-0.6
 41
-30.0
 62
     5
 63
     7
421
 16777215
 74
     1
 91
        4
 64
     7
 65
   257
 75
     1
175
     1
 42
1.0
 92
       12
 66
     7
 43
1.0
 76
     1
 77
     6
 78
     2
 67
     7
 79
     5
170
     0
171
     0
290
     0
174
     0
 93
        1
 44
0.0
173
     0
291
     1
 45
0.0
1001
ACAD
1000
AcDbSavedByObjectVersion
1070
     0
  0
DICTIONARY
  5
29D
330
3D
100
AcDbDictionary
280
     1
281
     1
  3
ACAD_XREC_ROUNDTRIP
360
29E
  0
DICTIONARY
  5
29B
330
3C
100
AcDbDictionary
280
     1
281
     1
  3
ACAD_XREC_ROUNDTRIP
360
29C
  0
DICTIONARY
  5
29F
330
3E
100
AcDbDictionary
280
     1
281
     1
  3
ACAD_XREC_ROUNDTRIP
360
2A0
  0
DICTIONARY
  5
283
330
2F
100
AcDbDictionary
280
     1
281
     1
  3
ACAD_XREC_ROUNDTRIP
360
284
  0
DICTIONARY
  5
287
330
31
100
AcDbDictionary
280
     1
281
     1
  3
ACAD_XREC_ROUNDTRIP
360
288
  0
DICTIONARY
  5
285
330
30
100
AcDbDictionary
280
     1
281
     1
  3
ACAD_XREC_ROUNDTRIP
360
286
  0
DICTIONARY
  5
289
330
32
100
AcDbDictionary
280
     1
281
     1
  3
ACAD_XREC_ROUNDTRIP
360
28A
  0
DICTIONARY
  5
291
330
36
100
AcDbDictionary
280
     1
281
     1
  3
ACAD_XREC_ROUNDTRIP
360
292
  0
DICTIONARY
  5
299
330
3A
100
AcDbDictionary
280
     1
281
     1
  3
ACAD_XREC_ROUNDTRIP
360
29A
  0
DICTIONARY
  5
28D
330
34
100
AcDbDictionary
280
     1
281
     1
  3
ACAD_XREC_ROUNDTRIP
360
28E
  0
DICTIONARY
  5
28F
330
35
100
AcDbDictionary
280
     1
281
     1
  3
ACAD_XREC_ROUNDTRIP
360
290
  0
DICTIONARY
  5
297
330
39
100
AcDbDictionary
280
     1
281
     1
  3
ACAD_XREC_ROUNDTRIP
360
298
  0
DICTIONARY
  5
27B
330
2B
100
AcDbDictionary
280
     1
281
     1
  3
ACAD_XREC_ROUNDTRIP
360
27C
  0
DICTIONARY
  5
27D
330
2C
100
AcDbDictionary
280
     1
281
     1
  3
ACAD_XREC_ROUNDTRIP
360
27E
  0
DICTIONARY
  5
27F
330
2D
100
AcDbDictionary
280
     1
281
     1
  3
ACAD_XREC_ROUNDTRIP
360
280
  0
DICTIONARY
  5
281
330
2E
100
AcDbDictionary
280
     1
281
     1
  3
ACAD_XREC_ROUNDTRIP
360
282
  0
DICTIONARY
  5
295
330
38
100
AcDbDictionary
280
     1
281
     1
  3
ACAD_XREC_ROUNDTRIP
360
296
  0
DICTIONARY
  5
28B
330
33
100
AcDbDictionary
280
     1
281
     1
  3
ACAD_XREC_ROUNDTRIP
360
28C
  0
DICTIONARY
  5
293
330
37
100
AcDbDictionary
280
     1
281
     1
  3
ACAD_XREC_ROUNDTRIP
360
294
  0
XRECORD
  5
29E
102
{ACAD_REACTORS
330
29D
102
}
330
29D
100
AcDbXrecord
280
     1
102
MATERIAL
148
0.0
149
0.0
149
0.0
 93
        0
 94
      127
282
     0
 72
     1
 77
     1
171
     1
175
     1
179
     1
273
     0
  0
XRECORD
  5
29C
102
{ACAD_REACTORS
330
29B
102
}
330
29B
100
AcDbXrecord
280
     1
102
MATERIAL
148
0.0
149
0.0
149
0.0
 93
        0
 94
      127
282
     0
 72
     1
 77
     1
171
     1
175
     1
179
     1
273
     0
  0
XRECORD
  5
2A0
102
{ACAD_REACTORS
330
29F
102
}
330
29F
100
AcDbXrecord
280
     1
102
MATERIAL
148
0.0
149
0.0
149
0.0
 93
        0
 94
      127
282
     0
 72
     1
 77
     1
171
     1
175
     1
179
     1
273
     0
  0
XRECORD
  5
284
102
{ACAD_REACTORS
330
283
102
}
330
283
100
AcDbXrecord
280
     1
102
RTVSPropertyOp0
 70
     1
102
RTVSPropertyOp1
 70
     1
102
RTVSPropertyOp2
 70
     1
102
RTVSPropertyOp3
 70
     1
102
RTVSPropertyOp4
 70
     1
102
RTVSPropertyOp5
 70
     1
102
RTVSPropertyOp6
 70
     1
102
RTVSPropertyOp7
 70
     1
102
RTVSPropertyOp8
 70
     1
102
RTVSPropertyOp9
 70
     1
102
RTVSPropertyOp10
 70
     1
102
RTVSPropertyOp11
 70
     1
102
RTVSPropertyOp12
 70
     1
102
RTVSPropertyOp13
 70
     1
102
RTVSPropertyOp14
 70
     1
102
RTVSPropertyOp15
 70
     1
102
RTVSPropertyOp16
 70
     1
102
RTVSPropertyOp17
 70
     1
102
RTVSPropertyOp18
 70
     1
102
RTVSPropertyOp19
 70
     1
102
RTVSPropertyOp20
 70
     1
102
RTVSPropertyOp21
 70
     1
102
RTVSPropertyOp22
 70
     1
102
RTVSPropertyOp23
 70
     1
102
RTVSPropertyOp24
 70
     1
102
RTVSPropertyOp25
 70
     1
102
RTVSPropertyOp26
 70
     1
102
RTVSPropertyOp27
 70
     1
102
RTVSPropertyOp28
 70
     1
102
RTVSPropertyOp29
 70
     1
102
RTVSPropertyOp30
 70
     1
102
RTVSPropertyOp31
 70
     1
102
RTVSPropertyOp32
 70
     1
  0
XRECORD
  5
288
102
{ACAD_REACTORS
330
287
102
}
330
287
100
AcDbXrecord
280
     1
102
RTVSPropertyOp0
 70
     1
102
RTVSPropertyOp1
 70
     1
102
RTVSPropertyOp2
 70
     1
102
RTVSPropertyOp3
 70
     1
102
RTVSPropertyOp4
 70
     1
102
RTVSPropertyOp5
 70
     1
102
RTVSPropertyOp6
 70
     1
102
RTVSPropertyOp7
 70
     1
102
RTVSPropertyOp8
 70
     1
102
RTVSPropertyOp9
 70
     1
102
RTVSPropertyOp10
 70
     1
102
RTVSPropertyOp11
 70
     1
102
RTVSPropertyOp12
 70
     1
102
RTVSPropertyOp13
 70
     1
102
RTVSPropertyOp14
 70
     1
102
RTVSPropertyOp15
 70
     1
102
RTVSPropertyOp16
 70
     1
102
RTVSPropertyOp17
 70
     1
102
RTVSPropertyOp18
 70
     1
102
RTVSPropertyOp19
 70
     1
102
RTVSPropertyOp20
 70
     1
102
RTVSPropertyOp21
 70
     1
102
RTVSPropertyOp22
 70
     1
102
RTVSPropertyOp23
 70
     1
102
RTVSPropertyOp24
 70
     1
102
RTVSPropertyOp25
 70
     1
102
RTVSPropertyOp26
 70
     1
102
RTVSPropertyOp27
 70
     1
102
RTVSPropertyOp28
 70
     1
102
RTVSPropertyOp29
 70
     1
102
RTVSPropertyOp30
 70
     1
102
RTVSPropertyOp31
 70
     1
102
RTVSPropertyOp32
 70
     1
  0
XRECORD
  5
286
102
{ACAD_REACTORS
330
285
102
}
330
285
100
AcDbXrecord
280
     1
102
RTVSPropertyOp0
 70
     1
102
RTVSPropertyOp1
 70
     1
102
RTVSPropertyOp2
 70
     1
102
RTVSPropertyOp3
 70
     1
102
RTVSPropertyOp4
 70
     1
102
RTVSPropertyOp5
 70
     1
102
RTVSPropertyOp6
 70
     1
102
RTVSPropertyOp7
 70
     1
102
RTVSPropertyOp8
 70
     1
102
RTVSPropertyOp9
 70
     1
102
RTVSPropertyOp10
 70
     1
102
RTVSPropertyOp11
 70
     1
102
RTVSPropertyOp12
 70
     1
102
RTVSPropertyOp13
 70
     1
102
RTVSPropertyOp14
 70
     1
102
RTVSPropertyOp15
 70
     1
102
RTVSPropertyOp16
 70
     1
102
RTVSPropertyOp17
 70
     1
102
RTVSPropertyOp18
 70
     1
102
RTVSPropertyOp19
 70
     1
102
RTVSPropertyOp20
 70
     1
102
RTVSPropertyOp21
 70
     1
102
RTVSPropertyOp22
 70
     1
102
RTVSPropertyOp23
 70
     1
102
RTVSPropertyOp24
 70
     1
102
RTVSPropertyOp25
 70
     1
102
RTVSPropertyOp26
 70
     1
102
RTVSPropertyOp27
 70
     1
102
RTVSPropertyOp28
 70
     1
102
RTVSPropertyOp29
 70
     1
102
RTVSPropertyOp30
 70
     1
102
RTVSPropertyOp31
 70
     1
102
RTVSPropertyOp32
 70
     1
  0
XRECORD
  5
28A
102
{ACAD_REACTORS
330
289
102
}
330
289
100
AcDbXrecord
280
     1
102
RTVSPropertyOp0
 70
     1
102
RTVSPropertyOp1
 70
     1
102
RTVSPropertyOp2
 70
     1
102
RTVSPropertyOp3
 70
     1
102
RTVSPropertyOp4
 70
     1
102
RTVSPropertyOp5
 70
     1
102
RTVSPropertyOp6
 70
     1
102
RTVSPropertyOp7
 70
     1
102
RTVSPropertyOp8
 70
     1
102
RTVSPropertyOp9
 70
     1
102
RTVSPropertyOp10
 70
     1
102
RTVSPropertyOp11
 70
     1
102
RTVSPropertyOp12
 70
     1
102
RTVSPropertyOp13
 70
     1
102
RTVSPropertyOp14
 70
     1
102
RTVSPropertyOp15
 70
     1
102
RTVSPropertyOp16
 70
     1
102
RTVSPropertyOp17
 70
     1
102
RTVSPropertyOp18
 70
     1
102
RTVSPropertyOp19
 70
     1
102
RTVSPropertyOp20
 70
     1
102
RTVSPropertyOp21
 70
     1
102
RTVSPropertyOp22
 70
     1
102
RTVSPropertyOp23
 70
     1
102
RTVSPropertyOp24
 70
     1
102
RTVSPropertyOp25
 70
     1
102
RTVSPropertyOp26
 70
     1
102
RTVSPropertyOp27
 70
     1
102
RTVSPropertyOp28
 70
     1
102
RTVSPropertyOp29
 70
     1
102
RTVSPropertyOp30
 70
     1
102
RTVSPropertyOp31
 70
     1
102
RTVSPropertyOp32
 70
     1
  0
XRECORD
  5
292
102
{ACAD_REACTORS
330
291
102
}
330
291
100
AcDbXrecord
280
     1
102
RTVSPropertyOp0
 70
     1
102
RTVSPropertyOp1
 70
     1
102
RTVSPropertyOp2
 70
     1
102
RTVSPropertyOp3
 70
     1
102
RTVSPropertyOp4
 70
     1
102
RTVSPropertyOp5
 70
     1
102
RTVSPropertyOp6
 70
     1
102
RTVSPropertyOp7
 70
     1
102
RTVSPropertyOp8
 70
     1
102
RTVSPropertyOp9
 70
     1
102
RTVSPropertyOp10
 70
     1
102
RTVSPropertyOp11
 70
     1
102
RTVSPropertyOp12
 70
     1
102
RTVSPropertyOp13
 70
     1
102
RTVSPropertyOp14
 70
     1
102
RTVSPropertyOp15
 70
     1
102
RTVSPropertyOp16
 70
     1
102
RTVSPropertyOp17
 70
     1
102
RTVSPropertyOp18
 70
     1
102
RTVSPropertyOp19
 70
     1
102
RTVSPropertyOp20
 70
     1
102
RTVSPropertyOp21
 70
     1
102
RTVSPropertyOp22
 70
     1
102
RTVSPropertyOp23
 70
     1
102
RTVSPropertyOp24
 70
     1
102
RTVSPropertyOp25
 70
     1
102
RTVSPropertyOp26
 70
     1
102
RTVSPropertyOp27
 70
     1
102
RTVSPropertyOp28
 70
     1
102
RTVSPropertyOp29
 70
     1
102
RTVSPropertyOp30
 70
     1
102
RTVSPropertyOp31
 70
     1
102
RTVSPropertyOp32
 70
     1
  0
XRECORD
  5
29A
102
{ACAD_REACTORS
330
299
102
}
330
299
100
AcDbXrecord
280
     1
102
RTVSPropertyOp0
 70
     1
102
RTVSPropertyOp1
 70
     1
102
RTVSPropertyOp2
 70
     1
102
RTVSPropertyOp3
 70
     1
102
RTVSPropertyOp4
 70
     1
102
RTVSPropertyOp5
 70
     1
102
RTVSPropertyOp6
 70
     1
102
RTVSPropertyOp7
 70
     1
102
RTVSPropertyOp8
 70
     1
102
RTVSPropertyOp9
 70
     1
102
RTVSPropertyOp10
 70
     1
102
RTVSPropertyOp11
 70
     1
102
RTVSPropertyOp12
 70
     1
102
RTVSPropertyOp13
 70
     1
102
RTVSPropertyOp14
 70
     1
102
RTVSPropertyOp15
 70
     1
102
RTVSPropertyOp16
 70
     1
102
RTVSPropertyOp17
 70
     1
102
RTVSPropertyOp18
 70
     1
102
RTVSPropertyOp19
 70
     1
102
RTVSPropertyOp20
 70
     1
102
RTVSPropertyOp21
 70
     1
102
RTVSPropertyOp22
 70
     1
102
RTVSPropertyOp23
 70
     1
102
RTVSPropertyOp24
 70
     1
102
RTVSPropertyOp25
 70
     1
102
RTVSPropertyOp26
 70
     1
102
RTVSPropertyOp27
 70
     1
102
RTVSPropertyOp28
 70
     1
102
RTVSPropertyOp29
 70
     1
102
RTVSPropertyOp30
 70
     1
102
RTVSPropertyOp31
 70
     1
102
RTVSPropertyOp32
 70
     1
  0
XRECORD
  5
28E
102
{ACAD_REACTORS
330
28D
102
}
330
28D
100
AcDbXrecord
280
     1
102
RTVSPropertyOp0
 70
     1
102
RTVSPropertyOp1
 70
     1
102
RTVSPropertyOp2
 70
     1
102
RTVSPropertyOp3
 70
     1
102
RTVSPropertyOp4
 70
     1
102
RTVSPropertyOp5
 70
     1
102
RTVSPropertyOp6
 70
     1
102
RTVSPropertyOp7
 70
     1
102
RTVSPropertyOp8
 70
     1
102
RTVSPropertyOp9
 70
     1
102
RTVSPropertyOp10
 70
     1
102
RTVSPropertyOp11
 70
     1
102
RTVSPropertyOp12
 70
     1
102
RTVSPropertyOp13
 70
     1
102
RTVSPropertyOp14
 70
     1
102
RTVSPropertyOp15
 70
     1
102
RTVSPropertyOp16
 70
     1
102
RTVSPropertyOp17
 70
     1
102
RTVSPropertyOp18
 70
     1
102
RTVSPropertyOp19
 70
     1
102
RTVSPropertyOp20
 70
     1
102
RTVSPropertyOp21
 70
     1
102
RTVSPropertyOp22
 70
     1
102
RTVSPropertyOp23
 70
     1
102
RTVSPropertyOp24
 70
     1
102
RTVSPropertyOp25
 70
     1
102
RTVSPropertyOp26
 70
     1
102
RTVSPropertyOp27
 70
     1
102
RTVSPropertyOp28
 70
     1
102
RTVSPropertyOp29
 70
     1
102
RTVSPropertyOp30
 70
     1
102
RTVSPropertyOp31
 70
     1
102
RTVSPropertyOp32
 70
     1
  0
XRECORD
  5
290
102
{ACAD_REACTORS
330
28F
102
}
330
28F
100
AcDbXrecord
280
     1
102
RTVSPropertyOp0
 70
     1
102
RTVSPropertyOp1
 70
     1
102
RTVSPropertyOp2
 70
     1
102
RTVSPropertyOp3
 70
     1
102
RTVSPropertyOp4
 70
     1
102
RTVSPropertyOp5
 70
     1
102
RTVSPropertyOp6
 70
     1
102
RTVSPropertyOp7
 70
     1
102
RTVSPropertyOp8
 70
     1
102
RTVSPropertyOp9
 70
     1
102
RTVSPropertyOp10
 70
     1
102
RTVSPropertyOp11
 70
     1
102
RTVSPropertyOp12
 70
     1
102
RTVSPropertyOp13
 70
     1
102
RTVSPropertyOp14
 70
     1
102
RTVSPropertyOp15
 70
     1
102
RTVSPropertyOp16
 70
     1
102
RTVSPropertyOp17
 70
     1
102
RTVSPropertyOp18
 70
     1
102
RTVSPropertyOp19
 70
     1
102
RTVSPropertyOp20
 70
     1
102
RTVSPropertyOp21
 70
     1
102
RTVSPropertyOp22
 70
     1
102
RTVSPropertyOp23
 70
     1
102
RTVSPropertyOp24
 70
     1
102
RTVSPropertyOp25
 70
     1
102
RTVSPropertyOp26
 70
     1
102
RTVSPropertyOp27
 70
     1
102
RTVSPropertyOp28
 70
     1
102
RTVSPropertyOp29
 70
     1
102
RTVSPropertyOp30
 70
     1
102
RTVSPropertyOp31
 70
     1
102
RTVSPropertyOp32
 70
     1
  0
XRECORD
  5
298
102
{ACAD_REACTORS
330
297
102
}
330
297
100
AcDbXrecord
280
     1
102
RTVSPropertyOp0
 70
     1
102
RTVSPropertyOp1
 70
     1
102
RTVSPropertyOp2
 70
     1
102
RTVSPropertyOp3
 70
     1
102
RTVSPropertyOp4
 70
     1
102
RTVSPropertyOp5
 70
     1
102
RTVSPropertyOp6
 70
     1
102
RTVSPropertyOp7
 70
     1
102
RTVSPropertyOp8
 70
     1
102
RTVSPropertyOp9
 70
     1
102
RTVSPropertyOp10
 70
     1
102
RTVSPropertyOp11
 70
     1
102
RTVSPropertyOp12
 70
     1
102
RTVSPropertyOp13
 70
     1
102
RTVSPropertyOp14
 70
     1
102
RTVSPropertyOp15
 70
     1
102
RTVSPropertyOp16
 70
     1
102
RTVSPropertyOp17
 70
     1
102
RTVSPropertyOp18
 70
     1
102
RTVSPropertyOp19
 70
     1
102
RTVSPropertyOp20
 70
     1
102
RTVSPropertyOp21
 70
     1
102
RTVSPropertyOp22
 70
     1
102
RTVSPropertyOp23
 70
     1
102
RTVSPropertyOp24
 70
     1
102
RTVSPropertyOp25
 70
     1
102
RTVSPropertyOp26
 70
     1
102
RTVSPropertyOp27
 70
     1
102
RTVSPropertyOp28
 70
     1
102
RTVSPropertyOp29
 70
     1
102
RTVSPropertyOp30
 70
     1
102
RTVSPropertyOp31
 70
     1
102
RTVSPropertyOp32
 70
     1
  0
XRECORD
  5
27C
102
{ACAD_REACTORS
330
27B
102
}
330
27B
100
AcDbXrecord
280
     1
102
RTVSPropertyOp0
 70
     1
102
RTVSPropertyOp1
 70
     1
102
RTVSPropertyOp2
 70
     1
102
RTVSPropertyOp3
 70
     1
102
RTVSPropertyOp4
 70
     1
102
RTVSPropertyOp5
 70
     1
102
RTVSPropertyOp6
 70
     1
102
RTVSPropertyOp7
 70
     1
102
RTVSPropertyOp8
 70
     1
102
RTVSPropertyOp9
 70
     1
102
RTVSPropertyOp10
 70
     1
102
RTVSPropertyOp11
 70
     1
102
RTVSPropertyOp12
 70
     1
102
RTVSPropertyOp13
 70
     1
102
RTVSPropertyOp14
 70
     1
102
RTVSPropertyOp15
 70
     1
102
RTVSPropertyOp16
 70
     1
102
RTVSPropertyOp17
 70
     1
102
RTVSPropertyOp18
 70
     1
102
RTVSPropertyOp19
 70
     1
102
RTVSPropertyOp20
 70
     1
102
RTVSPropertyOp21
 70
     1
102
RTVSPropertyOp22
 70
     1
102
RTVSPropertyOp23
 70
     1
102
RTVSPropertyOp24
 70
     1
102
RTVSPropertyOp25
 70
     1
102
RTVSPropertyOp26
 70
     1
102
RTVSPropertyOp27
 70
     1
102
RTVSPropertyOp28
 70
     1
102
RTVSPropertyOp29
 70
     1
102
RTVSPropertyOp30
 70
     1
102
RTVSPropertyOp31
 70
     1
102
RTVSPropertyOp32
 70
     1
  0
XRECORD
  5
27E
102
{ACAD_REACTORS
330
27D
102
}
330
27D
100
AcDbXrecord
280
     1
102
RTVSPropertyOp0
 70
     1
102
RTVSPropertyOp1
 70
     1
102
RTVSPropertyOp2
 70
     1
102
RTVSPropertyOp3
 70
     1
102
RTVSPropertyOp4
 70
     1
102
RTVSPropertyOp5
 70
     1
102
RTVSPropertyOp6
 70
     1
102
RTVSPropertyOp7
 70
     1
102
RTVSPropertyOp8
 70
     1
102
RTVSPropertyOp9
 70
     1
102
RTVSPropertyOp10
 70
     1
102
RTVSPropertyOp11
 70
     1
102
RTVSPropertyOp12
 70
     1
102
RTVSPropertyOp13
 70
     1
102
RTVSPropertyOp14
 70
     1
102
RTVSPropertyOp15
 70
     1
102
RTVSPropertyOp16
 70
     1
102
RTVSPropertyOp17
 70
     1
102
RTVSPropertyOp18
 70
     1
102
RTVSPropertyOp19
 70
     1
102
RTVSPropertyOp20
 70
     1
102
RTVSPropertyOp21
 70
     1
102
RTVSPropertyOp22
 70
     1
102
RTVSPropertyOp23
 70
     1
102
RTVSPropertyOp24
 70
     1
102
RTVSPropertyOp25
 70
     1
102
RTVSPropertyOp26
 70
     1
102
RTVSPropertyOp27
 70
     1
102
RTVSPropertyOp28
 70
     1
102
RTVSPropertyOp29
 70
     1
102
RTVSPropertyOp30
 70
     1
102
RTVSPropertyOp31
 70
     1
102
RTVSPropertyOp32
 70
     1
  0
XRECORD
  5
280
102
{ACAD_REACTORS
330
27F
102
}
330
27F
100
AcDbXrecord
280
     1
102
RTVSPropertyOp0
 70
     1
102
RTVSPropertyOp1
 70
     1
102
RTVSPropertyOp2
 70
     1
102
RTVSPropertyOp3
 70
     1
102
RTVSPropertyOp4
 70
     1
102
RTVSPropertyOp5
 70
     1
102
RTVSPropertyOp6
 70
     1
102
RTVSPropertyOp7
 70
     1
102
RTVSPropertyOp8
 70
     1
102
RTVSPropertyOp9
 70
     1
102
RTVSPropertyOp10
 70
     1
102
RTVSPropertyOp11
 70
     1
102
RTVSPropertyOp12
 70
     1
102
RTVSPropertyOp13
 70
     1
102
RTVSPropertyOp14
 70
     1
102
RTVSPropertyOp15
 70
     1
102
RTVSPropertyOp16
 70
     1
102
RTVSPropertyOp17
 70
     1
102
RTVSPropertyOp18
 70
     1
102
RTVSPropertyOp19
 70
     1
102
RTVSPropertyOp20
 70
     1
102
RTVSPropertyOp21
 70
     1
102
RTVSPropertyOp22
 70
     1
102
RTVSPropertyOp23
 70
     1
102
RTVSPropertyOp24
 70
     1
102
RTVSPropertyOp25
 70
     1
102
RTVSPropertyOp26
 70
     1
102
RTVSPropertyOp27
 70
     1
102
RTVSPropertyOp28
 70
     1
102
RTVSPropertyOp29
 70
     1
102
RTVSPropertyOp30
 70
     1
102
RTVSPropertyOp31
 70
     1
102
RTVSPropertyOp32
 70
     1
  0
XRECORD
  5
282
102
{ACAD_REACTORS
330
281
102
}
330
281
100
AcDbXrecord
280
     1
102
RTVSPropertyOp0
 70
     1
102
RTVSPropertyOp1
 70
     1
102
RTVSPropertyOp2
 70
     1
102
RTVSPropertyOp3
 70
     1
102
RTVSPropertyOp4
 70
     1
102
RTVSPropertyOp5
 70
     1
102
RTVSPropertyOp6
 70
     1
102
RTVSPropertyOp7
 70
     1
102
RTVSPropertyOp8
 70
     1
102
RTVSPropertyOp9
 70
     1
102
RTVSPropertyOp10
 70
     1
102
RTVSPropertyOp11
 70
     1
102
RTVSPropertyOp12
 70
     1
102
RTVSPropertyOp13
 70
     1
102
RTVSPropertyOp14
 70
     1
102
RTVSPropertyOp15
 70
     1
102
RTVSPropertyOp16
 70
     1
102
RTVSPropertyOp17
 70
     1
102
RTVSPropertyOp18
 70
     1
102
RTVSPropertyOp19
 70
     1
102
RTVSPropertyOp20
 70
     1
102
RTVSPropertyOp21
 70
     1
102
RTVSPropertyOp22
 70
     1
102
RTVSPropertyOp23
 70
     1
102
RTVSPropertyOp24
 70
     1
102
RTVSPropertyOp25
 70
     1
102
RTVSPropertyOp26
 70
     1
102
RTVSPropertyOp27
 70
     1
102
RTVSPropertyOp28
 70
     1
102
RTVSPropertyOp29
 70
     1
102
RTVSPropertyOp30
 70
     1
102
RTVSPropertyOp31
 70
     1
102
RTVSPropertyOp32
 70
     1
  0
XRECORD
  5
296
102
{ACAD_REACTORS
330
295
102
}
330
295
100
AcDbXrecord
280
     1
102
RTVSPropertyOp0
 70
     1
102
RTVSPropertyOp1
 70
     1
102
RTVSPropertyOp2
 70
     1
102
RTVSPropertyOp3
 70
     1
102
RTVSPropertyOp4
 70
     1
102
RTVSPropertyOp5
 70
     1
102
RTVSPropertyOp6
 70
     1
102
RTVSPropertyOp7
 70
     1
102
RTVSPropertyOp8
 70
     1
102
RTVSPropertyOp9
 70
     1
102
RTVSPropertyOp10
 70
     1
102
RTVSPropertyOp11
 70
     1
102
RTVSPropertyOp12
 70
     1
102
RTVSPropertyOp13
 70
     1
102
RTVSPropertyOp14
 70
     1
102
RTVSPropertyOp15
 70
     1
102
RTVSPropertyOp16
 70
     1
102
RTVSPropertyOp17
 70
     1
102
RTVSPropertyOp18
 70
     1
102
RTVSPropertyOp19
 70
     1
102
RTVSPropertyOp20
 70
     1
102
RTVSPropertyOp21
 70
     1
102
RTVSPropertyOp22
 70
     1
102
RTVSPropertyOp23
 70
     1
102
RTVSPropertyOp24
 70
     1
102
RTVSPropertyOp25
 70
     1
102
RTVSPropertyOp26
 70
     1
102
RTVSPropertyOp27
 70
     1
102
RTVSPropertyOp28
 70
     1
102
RTVSPropertyOp29
 70
     1
102
RTVSPropertyOp30
 70
     1
102
RTVSPropertyOp31
 70
     1
102
RTVSPropertyOp32
 70
     1
  0
XRECORD
  5
28C
102
{ACAD_REACTORS
330
28B
102
}
330
28B
100
AcDbXrecord
280
     1
102
RTVSPropertyOp0
 70
     1
102
RTVSPropertyOp1
 70
     1
102
RTVSPropertyOp2
 70
     1
102
RTVSPropertyOp3
 70
     1
102
RTVSPropertyOp4
 70
     1
102
RTVSPropertyOp5
 70
     1
102
RTVSPropertyOp6
 70
     1
102
RTVSPropertyOp7
 70
     1
102
RTVSPropertyOp8
 70
     1
102
RTVSPropertyOp9
 70
     1
102
RTVSPropertyOp10
 70
     1
102
RTVSPropertyOp11
 70
     1
102
RTVSPropertyOp12
 70
     1
102
RTVSPropertyOp13
 70
     1
102
RTVSPropertyOp14
 70
     1
102
RTVSPropertyOp15
 70
     1
102
RTVSPropertyOp16
 70
     1
102
RTVSPropertyOp17
 70
     1
102
RTVSPropertyOp18
 70
     1
102
RTVSPropertyOp19
 70
     1
102
RTVSPropertyOp20
 70
     1
102
RTVSPropertyOp21
 70
     1
102
RTVSPropertyOp22
 70
     1
102
RTVSPropertyOp23
 70
     1
102
RTVSPropertyOp24
 70
     1
102
RTVSPropertyOp25
 70
     1
102
RTVSPropertyOp26
 70
     1
102
RTVSPropertyOp27
 70
     1
102
RTVSPropertyOp28
 70
     1
102
RTVSPropertyOp29
 70
     1
102
RTVSPropertyOp30
 70
     1
102
RTVSPropertyOp31
 70
     1
102
RTVSPropertyOp32
 70
     1
  0
XRECORD
  5
294
102
{ACAD_REACTORS
330
293
102
}
330
293
100
AcDbXrecord
280
     1
102
RTVSPropertyOp0
 70
     1
102
RTVSPropertyOp1
 70
     1
102
RTVSPropertyOp2
 70
     1
102
RTVSPropertyOp3
 70
     1
102
RTVSPropertyOp4
 70
     1
102
RTVSPropertyOp5
 70
     1
102
RTVSPropertyOp6
 70
     1
102
RTVSPropertyOp7
 70
     1
102
RTVSPropertyOp8
 70
     1
102
RTVSPropertyOp9
 70
     1
102
RTVSPropertyOp10
 70
     1
102
RTVSPropertyOp11
 70
     1
102
RTVSPropertyOp12
 70
     1
102
RTVSPropertyOp13
 70
     1
102
RTVSPropertyOp14
 70
     1
102
RTVSPropertyOp15
 70
     1
102
RTVSPropertyOp16
 70
     1
102
RTVSPropertyOp17
 70
     1
102
RTVSPropertyOp18
 70
     1
102
RTVSPropertyOp19
 70
     1
102
RTVSPropertyOp20
 70
     1
102
RTVSPropertyOp21
 70
     1
102
RTVSPropertyOp22
 70
     1
102
RTVSPropertyOp23
 70
     1
102
RTVSPropertyOp24
 70
     1
102
RTVSPropertyOp25
 70
     1
102
RTVSPropertyOp26
 70
     1
102
RTVSPropertyOp27
 70
     1
102
RTVSPropertyOp28
 70
     1
102
RTVSPropertyOp29
 70
     1
102
RTVSPropertyOp30
 70
     1
102
RTVSPropertyOp31
 70
     1
102
RTVSPropertyOp32
 70
     1
  0
ENDSEC
  0
EOF
